  0
SECTION
  2
HEADER
  9
$ACADVER
  1
AC1015
  9
$ACADMAINTVER
 70
    13
  9
$DWGCODEPAGE
  3
ANSI_1252
  9
$INSBASE
 10
0.0
 20
0.0
 30
0.0
  9
$EXTMIN
 10
317.633973515632
 20
354.2917796684101
 30
-0.0015258207003583
  9
$EXTMAX
 10
911.6555801635325
 20
774.3272564962126
 30
0.0000000349246037
  9
$LIMMIN
 10
0.0
 20
0.0
  9
$LIMMAX
 10
420.0
 20
297.0
  9
$ORTHOMODE
 70
     0
  9
$REGENMODE
 70
     1
  9
$FILLMODE
 70
     1
  9
$QTEXTMODE
 70
     0
  9
$MIRRTEXT
 70
     0
  9
$LTSCALE
 40
12.0
  9
$ATTMODE
 70
     1
  9
$TEXTSIZE
 40
0.2
  9
$TRACEWID
 40
0.05
  9
$TEXTSTYLE
  7
Standard
  9
$CLAYER
  8
Bemaßungen(DIN)
  9
$CELTYPE
  6
ByLayer
  9
$CECOLOR
 62
   256
  9
$CELTSCALE
 40
1.0
  9
$DISPSILH
 70
     0
  9
$DIMSCALE
 40
1.0
  9
$DIMASZ
 40
1.799999999999999
  9
$DIMEXO
 40
0.0625
  9
$DIMDLI
 40
0.38
  9
$DIMRND
 40
0.0
  9
$DIMDLE
 40
0.0
  9
$DIMEXE
 40
0.18
  9
$DIMTP
 40
0.0
  9
$DIMTM
 40
0.0
  9
$DIMTXT
 40
0.3499999940395355
  9
$DIMCEN
 40
0.09
  9
$DIMTSZ
 40
0.0
  9
$DIMTOL
 70
     0
  9
$DIMLIM
 70
     0
  9
$DIMTIH
 70
     1
  9
$DIMTOH
 70
     1
  9
$DIMSE1
 70
     0
  9
$DIMSE2
 70
     0
  9
$DIMTAD
 70
     0
  9
$DIMZIN
 70
     0
  9
$DIMBLK
  1

  9
$DIMASO
 70
     1
  9
$DIMSHO
 70
     1
  9
$DIMPOST
  1

  9
$DIMAPOST
  1

  9
$DIMALT
 70
     0
  9
$DIMALTD
 70
     2
  9
$DIMALTF
 40
25.4
  9
$DIMLFAC
 40
1.0
  9
$DIMTOFL
 70
     0
  9
$DIMTVP
 40
0.0
  9
$DIMTIX
 70
     0
  9
$DIMSOXD
 70
     0
  9
$DIMSAH
 70
     0
  9
$DIMBLK1
  1

  9
$DIMBLK2
  1

  9
$DIMSTYLE
  2
Standard
  9
$DIMCLRD
 70
     0
  9
$DIMCLRE
 70
     0
  9
$DIMCLRT
 70
     0
  9
$DIMTFAC
 40
1.0
  9
$DIMGAP
 40
0.09
  9
$DIMJUST
 70
     0
  9
$DIMSD1
 70
     0
  9
$DIMSD2
 70
     0
  9
$DIMTOLJ
 70
     1
  9
$DIMTZIN
 70
     0
  9
$DIMALTZ
 70
     0
  9
$DIMALTTZ
 70
     0
  9
$DIMUPT
 70
     0
  9
$DIMDEC
 70
     4
  9
$DIMTDEC
 70
     4
  9
$DIMALTU
 70
     2
  9
$DIMALTTD
 70
     2
  9
$DIMTXSTY
  7
Standard
  9
$DIMAUNIT
 70
     0
  9
$DIMADEC
 70
     0
  9
$DIMALTRND
 40
0.0
  9
$DIMAZIN
 70
     0
  9
$DIMDSEP
 70
    46
  9
$DIMATFIT
 70
     3
  9
$DIMFRAC
 70
     0
  9
$DIMLDRBLK
  1

  9
$DIMLUNIT
 70
     2
  9
$DIMLWD
 70
    -2
  9
$DIMLWE
 70
    -2
  9
$DIMTMOVE
 70
     0
  9
$LUNITS
 70
     2
  9
$LUPREC
 70
     4
  9
$SKETCHINC
 40
0.1
  9
$FILLETRAD
 40
0.0
  9
$AUNITS
 70
     0
  9
$AUPREC
 70
     0
  9
$MENU
  1
.
  9
$ELEVATION
 40
0.0
  9
$PELEVATION
 40
0.0
  9
$THICKNESS
 40
0.0
  9
$LIMCHECK
 70
     0
  9
$CHAMFERA
 40
0.0
  9
$CHAMFERB
 40
0.0
  9
$CHAMFERC
 40
0.0
  9
$CHAMFERD
 40
0.0
  9
$SKPOLY
 70
     0
  9
$TDCREATE
 40
2453486.893323542
  9
$TDUCREATE
 40
2453486.809990208
  9
$TDUPDATE
 40
2453509.502470335
  9
$TDUUPDATE
 40
2453509.419137002
  9
$TDINDWG
 40
0.0056380440
  9
$TDUSRTIMER
 40
0.0056380440
  9
$USRTIMER
 70
     1
  9
$ANGBASE
 50
0.0
  9
$ANGDIR
 70
     0
  9
$PDMODE
 70
     0
  9
$PDSIZE
 40
0.0
  9
$PLINEWID
 40
0.0
  9
$SPLFRAME
 70
     0
  9
$SPLINETYPE
 70
     6
  9
$SPLINESEGS
 70
     8
  9
$HANDSEED
  5
2E8A
  9
$SURFTAB1
 70
     6
  9
$SURFTAB2
 70
     6
  9
$SURFTYPE
 70
     6
  9
$SURFU
 70
     6
  9
$SURFV
 70
     6
  9
$UCSBASE
  2

  9
$UCSNAME
  2

  9
$UCSORG
 10
0.0
 20
0.0
 30
0.0
  9
$UCSXDIR
 10
1.0
 20
0.0
 30
0.0
  9
$UCSYDIR
 10
0.0
 20
1.0
 30
0.0
  9
$UCSORTHOREF
  2

  9
$UCSORTHOVIEW
 70
     0
  9
$UCSORGTOP
 10
0.0
 20
0.0
 30
0.0
  9
$UCSORGBOTTOM
 10
0.0
 20
0.0
 30
0.0
  9
$UCSORGLEFT
 10
0.0
 20
0.0
 30
0.0
  9
$UCSORGRIGHT
 10
0.0
 20
0.0
 30
0.0
  9
$UCSORGFRONT
 10
0.0
 20
0.0
 30
0.0
  9
$UCSORGBACK
 10
0.0
 20
0.0
 30
0.0
  9
$PUCSBASE
  2

  9
$PUCSNAME
  2

  9
$PUCSORG
 10
0.0
 20
0.0
 30
0.0
  9
$PUCSXDIR
 10
1.0
 20
0.0
 30
0.0
  9
$PUCSYDIR
 10
0.0
 20
1.0
 30
0.0
  9
$PUCSORTHOREF
  2

  9
$PUCSORTHOVIEW
 70
     0
  9
$PUCSORGTOP
 10
0.0
 20
0.0
 30
0.0
  9
$PUCSORGBOTTOM
 10
0.0
 20
0.0
 30
0.0
  9
$PUCSORGLEFT
 10
0.0
 20
0.0
 30
0.0
  9
$PUCSORGRIGHT
 10
0.0
 20
0.0
 30
0.0
  9
$PUCSORGFRONT
 10
0.0
 20
0.0
 30
0.0
  9
$PUCSORGBACK
 10
0.0
 20
0.0
 30
0.0
  9
$USERI1
 70
     0
  9
$USERI2
 70
     0
  9
$USERI3
 70
     0
  9
$USERI4
 70
     0
  9
$USERI5
 70
     0
  9
$USERR1
 40
0.0
  9
$USERR2
 40
0.0
  9
$USERR3
 40
0.0
  9
$USERR4
 40
0.0
  9
$USERR5
 40
0.0
  9
$WORLDVIEW
 70
     1
  9
$SHADEDGE
 70
     3
  9
$SHADEDIF
 70
    70
  9
$TILEMODE
 70
     1
  9
$MAXACTVP
 70
    64
  9
$PINSBASE
 10
0.0
 20
0.0
 30
0.0
  9
$PLIMCHECK
 70
     0
  9
$PEXTMIN
 10
0.0
 20
0.0
 30
0.0
  9
$PEXTMAX
 10
420.0
 20
297.0
 30
0.0
  9
$PLIMMIN
 10
0.0
 20
0.0
  9
$PLIMMAX
 10
420.0
 20
297.0
  9
$UNITMODE
 70
     0
  9
$VISRETAIN
 70
     1
  9
$PLINEGEN
 70
     0
  9
$PSLTSCALE
 70
     1
  9
$TREEDEPTH
 70
  3020
  9
$CMLSTYLE
  2
Standard
  9
$CMLJUST
 70
     0
  9
$CMLSCALE
 40
1.0
  9
$PROXYGRAPHICS
 70
     1
  9
$MEASUREMENT
 70
     1
  9
$CELWEIGHT
370
    -1
  9
$ENDCAPS
280
     0
  9
$JOINSTYLE
280
     0
  9
$LWDISPLAY
290
     0
  9
$INSUNITS
 70
     0
  9
$HYPERLINKBASE
  1

  9
$STYLESHEET
  1

  9
$XEDIT
290
     1
  9
$CEPSNTYPE
380
     0
  9
$PSTYLEMODE
290
     1
  9
$FINGERPRINTGUID
  2
{9C7D6D9E-1EB3-44C6-8B44-68A2CA92020C}
  9
$VERSIONGUID
  2
{21C14344-9E11-402C-B500-3D355BB97F82}
  9
$EXTNAMES
290
     1
  9
$PSVPSCALE
 40
0.0
  9
$OLESTARTUP
290
     0
  0
ENDSEC
  0
SECTION
  2
CLASSES
  0
CLASS
  1
ACDBDICTIONARYWDFLT
  2
AcDbDictionaryWithDefault
  3
AutoCAD 2000
 90
        0
280
     0
281
     0
  0
CLASS
  1
TABLESTYLE
  2
AcDbTableStyle
  3
ObjectDBX Classes
 90
     2047
280
     0
281
     0
  0
CLASS
  1
DICTIONARYVAR
  2
AcDbDictionaryVar
  3
AutoCAD 2000
 90
        0
280
     0
281
     0
  0
CLASS
  1
ACDBPLACEHOLDER
  2
AcDbPlaceHolder
  3
AutoCAD 2000
 90
        0
280
     0
281
     0
  0
CLASS
  1
LAYOUT
  2
AcDbLayout
  3
AutoCAD 2000
 90
        0
280
     0
281
     0
  0
ENDSEC
  0
SECTION
  2
TABLES
  0
TABLE
  2
VPORT
  5
8
330
0
100
AcDbSymbolTable
 70
     4
  0
VPORT
  5
2E89
330
8
100
AcDbSymbolTableRecord
100
AcDbViewportTableRecord
  2
*Active
 70
     0
 10
0.0
 20
0.0
 11
1.0
 21
1.0
 12
614.6447768395822
 22
564.3095180823113
 13
0.0
 23
0.0
 14
1.0
 24
1.0
 15
0.0
 25
0.0
 16
0.0
 26
0.0
 36
1.0
 17
0.0
 27
0.0
 37
0.0
 40
423.2215866393914
 41
1.50759493670886
 42
50.0
 43
0.0
 44
0.0
 50
0.0
 51
0.0
 71
     0
 72
   100
 73
     1
 74
     1
 75
     0
 76
     0
 77
     0
 78
     0
281
     0
 65
     1
110
0.0
120
0.0
130
0.0
111
1.0
121
0.0
131
0.0
112
0.0
122
1.0
132
0.0
 79
     0
146
0.0
  0
ENDTAB
  0
TABLE
  2
LTYPE
  5
5
330
0
100
AcDbSymbolTable
 70
    59
  0
LTYPE
  5
14
330
5
100
AcDbSymbolTableRecord
100
AcDbLinetypeTableRecord
  2
ByBlock
 70
     0
  3

 72
    65
 73
     0
 40
0.0
  0
LTYPE
  5
15
330
5
100
AcDbSymbolTableRecord
100
AcDbLinetypeTableRecord
  2
ByLayer
 70
     0
  3

 72
    65
 73
     0
 40
0.0
  0
LTYPE
  5
16
330
5
100
AcDbSymbolTableRecord
100
AcDbLinetypeTableRecord
  2
Continuous
 70
     0
  3
Solid line
 72
    65
 73
     0
 40
0.0
  0
LTYPE
  5
2E
330
5
100
AcDbSymbolTableRecord
100
AcDbLinetypeTableRecord
  2
DASH_DOT
 70
     0
  3
Dash dot _._._._._._._._._._._._._._._.
 72
    65
 73
     4
 40
0.37
 49
0.24
 74
     0
 49
-0.06
 74
     0
 49
0.01
 74
     0
 49
-0.06
 74
     0
  0
LTYPE
  5
31
330
5
100
AcDbSymbolTableRecord
100
AcDbLinetypeTableRecord
  2
DASHED
 70
     0
  3
Dashed __ __ __ __ __ __ __ __ __ __ __ __ __ _
 72
    65
 73
     2
 40
0.2067
 49
0.1654
 74
     0
 49
-0.0413
 74
     0
  0
LTYPE
  5
34
330
5
100
AcDbSymbolTableRecord
100
AcDbLinetypeTableRecord
  2
DOUBLE_DASH_CHAIN
 70
     0
  3
Double Dash Chain ___ _ _ ___ _ _ ___ _ _ ___ _
 72
    65
 73
     6
 40
1.240299999999999
 49
0.6614
 74
     0
 49
-0.0827
 74
     0
 49
0.1654
 74
     0
 49
-0.0827
 74
     0
 49
0.1654
 74
     0
 49
-0.0827
 74
     0
  0
LTYPE
  5
38
330
5
100
AcDbSymbolTableRecord
100
AcDbLinetypeTableRecord
  2
LONG_DASH_DOTTED
 70
     0
  3
Long-Dash Dot ____ . ____ . ____ . ____ . _
 72
    65
 73
     4
 40
0.3001
 49
0.2362
 74
     0
 49
-0.0295
 74
     0
 49
0.0049
 74
     0
 49
-0.0295
 74
     0
  0
LTYPE
  5
3E
330
5
100
AcDbSymbolTableRecord
100
AcDbLinetypeTableRecord
  2
CENTER
 70
     0
  3
Center ____ _ ____ _ ____ _ ____ _ ____ _ ____
 72
    65
 73
     4
 40
50.8
 49
31.75
 74
     0
 49
-6.349999999999999
 74
     0
 49
6.349999999999999
 74
     0
 49
-6.349999999999999
 74
     0
  0
ENDTAB
  0
TABLE
  2
LAYER
  5
2
102
{ACAD_XDICTIONARY
360
1BA8
102
}
330
0
100
AcDbSymbolTable
 70
    19
  0
LAYER
  5
10
330
2
100
AcDbSymbolTableRecord
100
AcDbLayerTableRecord
  2
0
 70
     0
 62
     7
  6
Continuous
370
    -3
390
F
  0
LAYER
  5
9E
330
2
100
AcDbSymbolTableRecord
100
AcDbLayerTableRecord
  2
Bemaßungen(DIN)
 70
     0
 62
     2
  6
Continuous
370
    18
390
F
  0
LAYER
  5
D1
330
2
100
AcDbSymbolTableRecord
100
AcDbLayerTableRecord
  2
Mittellinie(DIN)
 70
     0
 62
     2
  6
DASH_DOT
370
    18
390
F
  0
LAYER
  5
D7
330
2
100
AcDbSymbolTableRecord
100
AcDbLayerTableRecord
  2
Mittelpunktmarkierung(DIN)
 70
     0
 62
     7
  6
DASH_DOT
370
    18
390
F
  0
LAYER
  5
EA
330
2
100
AcDbSymbolTableRecord
100
AcDbLayerTableRecord
  2
Schnittansichtslinien(DIN)
 70
     0
 62
     7
  6
LONG_DASH_DOTTED
370
    18
390
F
  0
LAYER
  5
EE
330
2
100
AcDbSymbolTableRecord
100
AcDbLayerTableRecord
  2
Schraffur
 70
     0
 62
     2
  6
Continuous
370
     9
390
F
  0
LAYER
  5
F1
330
2
100
AcDbSymbolTableRecord
100
AcDbLayerTableRecord
  2
Sichtbare Kanten(DIN)
 70
     0
 62
     7
  6
Continuous
370
    35
390
F
  0
LAYER
  5
114
330
2
100
AcDbSymbolTableRecord
100
AcDbLayerTableRecord
  2
Symbole(DIN)
 70
     0
 62
     7
  6
Continuous
370
    25
390
F
  0
LAYER
  5
126
330
2
100
AcDbSymbolTableRecord
100
AcDbLayerTableRecord
  2
Verdeckte Kanten(DIN)
 70
     0
 62
     3
  6
DASHED
370
    18
390
F
  0
LAYER
  5
55F
330
2
100
AcDbSymbolTableRecord
100
AcDbLayerTableRecord
  2
Defpoints
 70
     0
 62
     7
  6
Continuous
290
     0
370
    -3
390
F
  0
LAYER
  5
23BE
330
2
100
AcDbSymbolTableRecord
100
AcDbLayerTableRecord
  2
Gewinde(DIN)
 70
     0
 62
     7
  6
Continuous
370
    18
390
F
  0
LAYER
  5
23BF
330
2
100
AcDbSymbolTableRecord
100
AcDbLayerTableRecord
  2
BEMAßUNG-025
 70
     0
 62
    30
  6
Continuous
370
    25
390
F
  0
LAYER
  5
23C0
330
2
100
AcDbSymbolTableRecord
100
AcDbLayerTableRecord
  2
SCHRIFT-025
 70
     0
 62
   191
  6
Continuous
370
    25
390
F
  0
LAYER
  5
23C1
330
2
100
AcDbSymbolTableRecord
100
AcDbLayerTableRecord
  2
SCHRIFT-035
 70
     0
 62
   122
  6
Continuous
370
    35
390
F
  0
LAYER
  5
23C2
330
2
100
AcDbSymbolTableRecord
100
AcDbLayerTableRecord
  2
XKANTEN-025
 70
     0
 62
     5
  6
Continuous
370
    25
390
F
  0
LAYER
  5
23C3
330
2
100
AcDbSymbolTableRecord
100
AcDbLayerTableRecord
  2
XKANTEN-035
 70
     0
 62
    80
  6
Continuous
370
    35
390
F
  0
LAYER
  5
23C4
330
2
100
AcDbSymbolTableRecord
100
AcDbLayerTableRecord
  2
XKANTEN-07
 70
     0
 62
     3
  6
Continuous
370
    70
390
F
  0
LAYER
  5
23C5
330
2
100
AcDbSymbolTableRecord
100
AcDbLayerTableRecord
  2
L6
 70
     0
 62
     1
  6
CENTER
370
    -3
390
F
  0
ENDTAB
  0
TABLE
  2
STYLE
  5
3
330
0
100
AcDbSymbolTable
 70
    53
  0
STYLE
  5
11
330
3
100
AcDbSymbolTableRecord
100
AcDbTextStyleTableRecord
  2
Standard
 70
     0
 40
0.0
 41
1.0
 50
0.0
 71
     0
 42
0.2
  3
ARIAL.TTF
  4

1001
ACAD
1000
Arial
1071
      256
  0
STYLE
  5
141
330
3
100
AcDbSymbolTableRecord
100
AcDbTextStyleTableRecord
  2
DIN-Stepp
 70
     0
 40
0.0
 41
1.0
 50
0.0
 71
     0
 42
0.2
  3
ARIAL.TTF
  4

1001
ACAD
1000
Arial
1071
      256
  0
STYLE
  5
152
330
3
100
AcDbSymbolTableRecord
100
AcDbTextStyleTableRecord
  2
STANDARD-DINGroßer Text
 70
     0
 40
0.0
 41
1.0
 50
0.0
 71
     0
 42
0.2
  3
ARIAL.TTF
  4

1001
ACAD
1000
Arial
1071
      256
  0
STYLE
  5
15F
330
3
100
AcDbSymbolTableRecord
100
AcDbTextStyleTableRecord
  2
STANDARDSTANDARD
 70
     0
 40
0.0
 41
1.0
 50
0.0
 71
     0
 42
0.2
  3
txt_____.ttf
  4

1001
ACAD
1000
txt
1071
      256
  0
STYLE
  5
8B1
330
3
100
AcDbSymbolTableRecord
100
AcDbTextStyleTableRecord
  2
Textstil14
 70
     0
 40
0.0
 41
1.0
 50
0.0
 71
     0
 42
0.2
  3
ARIAL.TTF
  4

1001
ACAD
1000
Arial
1071
      256
  0
ENDTAB
  0
TABLE
  2
VIEW
  5
6
330
0
100
AcDbSymbolTable
 70
     0
  0
ENDTAB
  0
TABLE
  2
UCS
  5
7
330
0
100
AcDbSymbolTable
 70
     0
  0
ENDTAB
  0
TABLE
  2
APPID
  5
9
330
0
100
AcDbSymbolTable
 70
    13
  0
APPID
  5
12
330
9
100
AcDbSymbolTableRecord
100
AcDbRegAppTableRecord
  2
ACAD
 70
     0
  0
APPID
  5
1BAB
330
9
100
AcDbSymbolTableRecord
100
AcDbRegAppTableRecord
  2
ACAD_DSTYLE_DIMTEXT_FILL
 70
     0
  0
APPID
  5
23C6
330
9
100
AcDbSymbolTableRecord
100
AcDbRegAppTableRecord
  2
GENIUS_GENDIM_13
 70
     0
  0
APPID
  5
23C7
330
9
100
AcDbSymbolTableRecord
100
AcDbRegAppTableRecord
  2
GENIUS_GENDTOL_13
 70
     0
  0
APPID
  5
23C8
330
9
100
AcDbSymbolTableRecord
100
AcDbRegAppTableRecord
  2
GENIUS_GE3DTOL_13
 70
     0
  0
APPID
  5
23C9
330
9
100
AcDbSymbolTableRecord
100
AcDbRegAppTableRecord
  2
MCAD_NO_VIS
 70
     0
  0
APPID
  5
23CA
330
9
100
AcDbSymbolTableRecord
100
AcDbRegAppTableRecord
  2
ACAD_TEMP_GRAPHIC
 70
     0
  0
APPID
  5
23CB
330
9
100
AcDbSymbolTableRecord
100
AcDbRegAppTableRecord
  2
AD_DRAW
 70
     0
  0
APPID
  5
23CC
330
9
100
AcDbSymbolTableRecord
100
AcDbRegAppTableRecord
  2
ACATTRIBSERVICES
 70
     0
  0
APPID
  5
23CD
330
9
100
AcDbSymbolTableRecord
100
AcDbRegAppTableRecord
  2
ASURF_PCURVE_APPNAME
 70
     0
  0
APPID
  5
23CE
330
9
100
AcDbSymbolTableRecord
100
AcDbRegAppTableRecord
  2
AMG_3D2D_5.0
 70
     0
  0
APPID
  5
23CF
330
9
100
AcDbSymbolTableRecord
100
AcDbRegAppTableRecord
  2
DESIGNERASSEMBLIES
 70
     0
  0
APPID
  5
23D0
330
9
100
AcDbSymbolTableRecord
100
AcDbRegAppTableRecord
  2
ACADM_DIM_EDIT
 70
     0
  0
ENDTAB
  0
TABLE
  2
DIMSTYLE
  5
A
330
0
100
AcDbSymbolTable
 70
   106
100
AcDbDimStyleTable
 71
     2
340
16E
340
2B
  0
DIMSTYLE
105
2B
330
A
100
AcDbSymbolTableRecord
100
AcDbDimStyleTableRecord
  2
Standard
 70
     0
 41
0.1800000071525574
 43
0.3800000000000001
 45
0.00000001
140
0.1800000071525574
143
1.0
176
     7
177
     7
178
     7
340
15F
371
     0
372
     0
  0
DIMSTYLE
105
16E
102
{ACAD_REACTORS
330
55D
330
62C
330
6F9
330
7C6
330
9B9
330
A86
330
B53
330
C26
330
CF8
330
DB8
330
E85
330
F52
330
1012
330
10CD
330
119A
330
1267
330
1334
330
1407
330
14D4
330
15A1
330
1678
330
1745
330
1813
330
18BC
330
1989
102
}
330
A
100
AcDbSymbolTableRecord
100
AcDbDimStyleTableRecord
  2
DIN-Stepp
 70
     0
 41
2.5
 42
0.0
 43
6.0
 44
2.5
 45
0.00000001
 46
10.0
 73
     0
 77
     1
 78
     8
 79
     2
140
2.5
143
0.03937
146
0.6
147
0.5
171
     3
176
     2
177
     2
178
     1
271
     1
272
     1
274
     3
340
141
371
    25
372
    25
  0
ENDTAB
  0
TABLE
  2
BLOCK_RECORD
  5
1
330
0
100
AcDbSymbolTable
 70
    99
  0
BLOCK_RECORD
  5
23
330
1
100
AcDbSymbolTableRecord
100
AcDbBlockTableRecord
  2
*Model_Space
340
26
  0
BLOCK_RECORD
  5
1F
330
1
100
AcDbSymbolTableRecord
100
AcDbBlockTableRecord
  2
*Paper_Space
340
22
  0
BLOCK_RECORD
  5
27
330
1
100
AcDbSymbolTableRecord
100
AcDbBlockTableRecord
  2
*Paper_Space0
340
2A
  0
BLOCK_RECORD
  5
893
330
1
100
AcDbSymbolTableRecord
100
AcDbBlockTableRecord
  2
2DTransSchnitt0
340
0
102
{BLKREFS
331
8B4
102
}
  0
BLOCK_RECORD
  5
1A68
330
1
100
AcDbSymbolTableRecord
100
AcDbBlockTableRecord
  2
*D13
340
0
  0
BLOCK_RECORD
  5
1A74
330
1
100
AcDbSymbolTableRecord
100
AcDbBlockTableRecord
  2
*D14
340
0
  0
BLOCK_RECORD
  5
1A80
330
1
100
AcDbSymbolTableRecord
100
AcDbBlockTableRecord
  2
*D15
340
0
  0
BLOCK_RECORD
  5
1A8C
330
1
100
AcDbSymbolTableRecord
100
AcDbBlockTableRecord
  2
*D16
340
0
  0
BLOCK_RECORD
  5
1A98
330
1
100
AcDbSymbolTableRecord
100
AcDbBlockTableRecord
  2
*D17
340
0
  0
BLOCK_RECORD
  5
1AA4
330
1
100
AcDbSymbolTableRecord
100
AcDbBlockTableRecord
  2
*D18
340
0
  0
BLOCK_RECORD
  5
1AB0
330
1
100
AcDbSymbolTableRecord
100
AcDbBlockTableRecord
  2
*D19
340
0
  0
BLOCK_RECORD
  5
1ABB
330
1
100
AcDbSymbolTableRecord
100
AcDbBlockTableRecord
  2
*D20
340
0
  0
BLOCK_RECORD
  5
1AC7
330
1
100
AcDbSymbolTableRecord
100
AcDbBlockTableRecord
  2
*D21
340
0
  0
BLOCK_RECORD
  5
1AD3
330
1
100
AcDbSymbolTableRecord
100
AcDbBlockTableRecord
  2
*D22
340
0
  0
BLOCK_RECORD
  5
1ADF
330
1
100
AcDbSymbolTableRecord
100
AcDbBlockTableRecord
  2
*D23
340
0
  0
BLOCK_RECORD
  5
1AEB
330
1
100
AcDbSymbolTableRecord
100
AcDbBlockTableRecord
  2
*D24
340
0
  0
BLOCK_RECORD
  5
1AF7
330
1
100
AcDbSymbolTableRecord
100
AcDbBlockTableRecord
  2
*D25
340
0
  0
BLOCK_RECORD
  5
1B03
330
1
100
AcDbSymbolTableRecord
100
AcDbBlockTableRecord
  2
*D26
340
0
  0
BLOCK_RECORD
  5
1B0F
330
1
100
AcDbSymbolTableRecord
100
AcDbBlockTableRecord
  2
*D27
340
0
  0
BLOCK_RECORD
  5
1B1B
330
1
100
AcDbSymbolTableRecord
100
AcDbBlockTableRecord
  2
*D28
340
0
  0
BLOCK_RECORD
  5
1B27
330
1
100
AcDbSymbolTableRecord
100
AcDbBlockTableRecord
  2
*D29
340
0
  0
BLOCK_RECORD
  5
1B32
330
1
100
AcDbSymbolTableRecord
100
AcDbBlockTableRecord
  2
*D30
340
0
  0
BLOCK_RECORD
  5
1B3E
330
1
100
AcDbSymbolTableRecord
100
AcDbBlockTableRecord
  2
*D31
340
0
  0
BLOCK_RECORD
  5
1B4A
330
1
100
AcDbSymbolTableRecord
100
AcDbBlockTableRecord
  2
*D32
340
0
  0
BLOCK_RECORD
  5
1B56
330
1
100
AcDbSymbolTableRecord
100
AcDbBlockTableRecord
  2
*D33
340
0
  0
BLOCK_RECORD
  5
1B62
330
1
100
AcDbSymbolTableRecord
100
AcDbBlockTableRecord
  2
*D34
340
0
  0
BLOCK_RECORD
  5
1B6E
330
1
100
AcDbSymbolTableRecord
100
AcDbBlockTableRecord
  2
*D35
340
0
  0
BLOCK_RECORD
  5
1B79
330
1
100
AcDbSymbolTableRecord
100
AcDbBlockTableRecord
  2
*D36
340
0
  0
BLOCK_RECORD
  5
1B85
330
1
100
AcDbSymbolTableRecord
100
AcDbBlockTableRecord
  2
*D37
340
0
  0
ENDTAB
  0
ENDSEC
  0
SECTION
  2
BLOCKS
  0
BLOCK
  5
24
330
23
100
AcDbEntity
  8
0
100
AcDbBlockBegin
  2
*Model_Space
 70
     0
 10
0.0
 20
0.0
 30
0.0
  3
*Model_Space
  1

  0
ENDBLK
  5
25
330
23
100
AcDbEntity
  8
0
100
AcDbBlockEnd
  0
BLOCK
  5
20
330
1F
100
AcDbEntity
 67
     1
  8
0
100
AcDbBlockBegin
  2
*Paper_Space
 70
     0
 10
0.0
 20
0.0
 30
0.0
  3
*Paper_Space
  1

  0
ENDBLK
  5
21
330
1F
100
AcDbEntity
 67
     1
  8
0
100
AcDbBlockEnd
  0
BLOCK
  5
28
330
27
100
AcDbEntity
  8
0
100
AcDbBlockBegin
  2
*Paper_Space0
 70
     0
 10
0.0
 20
0.0
 30
0.0
  3
*Paper_Space0
  1

  0
ENDBLK
  5
29
330
27
100
AcDbEntity
  8
0
100
AcDbBlockEnd
  0
BLOCK
  5
894
330
893
100
AcDbEntity
  8
0
100
AcDbBlockBegin
  2
2DTransSchnitt0
 70
     0
 10
0.0
 20
0.0
 30
0.0
  3
2DTransSchnitt0
  1

  0
LINE
  5
896
330
893
100
AcDbEntity
  8
Schnittansichtslinien(DIN)
  6
DOUBLE_DASH_CHAIN
 48
3.443569898605346
100
AcDbLine
 10
131.416730472853
 20
243.4386528209175
 30
0.0
 11
131.416730472853
 21
27.05460867131037
 31
0.0
  0
LINE
  5
897
330
893
100
AcDbEntity
  8
Schnittansichtslinien(DIN)
 48
3.713963508605957
370
    35
100
AcDbLine
 10
131.416730472853
 20
243.4386528209175
 30
0.0
 11
131.416730472853
 21
240.6075930709361
 31
0.0
  0
LINE
  5
898
330
893
100
AcDbEntity
  8
Schnittansichtslinien(DIN)
 48
3.713963508605957
370
    35
100
AcDbLine
 10
131.416730472853
 20
29.88566842129172
 30
0.0
 11
131.416730472853
 21
27.05460867131037
 31
0.0
  0
LINE
  5
899
330
893
100
AcDbEntity
  8
Schnittansichtslinien(DIN)
  6
Continuous
100
AcDbLine
 10
126.416730472853
 20
242.0231229459268
 30
0.0
 11
131.416730472853
 21
242.0231229459268
 31
0.0
  0
POLYLINE
  5
89A
330
893
100
AcDbEntity
  8
Schnittansichtslinien(DIN)
  6
Continuous
100
AcDb2dPolyline
 66
     1
 10
0.0
 20
0.0
 30
0.0
 70
   128
  0
VERTEX
  5
89B
330
89A
100
AcDbEntity
  8
Schnittansichtslinien(DIN)
  6
Continuous
100
AcDbVertex
100
AcDb2dVertex
 10
126.416730472853
 20
241.0231215233913
 30
0.0
  0
VERTEX
  5
89C
330
89A
100
AcDbEntity
  8
Schnittansichtslinien(DIN)
  6
Continuous
100
AcDbVertex
100
AcDb2dVertex
 10
131.416730472853
 20
242.0231253380886
 30
0.0
  0
VERTEX
  5
89E
330
89A
100
AcDbEntity
  8
Schnittansichtslinien(DIN)
  6
Continuous
100
AcDbVertex
100
AcDb2dVertex
 10
126.416730472853
 20
243.0231196160427
 30
0.0
  0
VERTEX
  5
89F
330
89A
100
AcDbEntity
  8
Schnittansichtslinien(DIN)
  6
Continuous
100
AcDbVertex
100
AcDb2dVertex
 10
126.416730472853
 20
241.0231215233913
 30
0.0
  0
SEQEND
  5
89D
330
89A
100
AcDbEntity
  8
Schnittansichtslinien(DIN)
  6
Continuous
  0
SOLID
  5
8A0
330
893
100
AcDbEntity
  8
Schnittansichtslinien(DIN)
100
AcDbTrace
 10
126.416730472853
 20
241.0231215233913
 30
0.0
 11
131.416730472853
 21
242.0231253380886
 31
0.0
 12
126.416730472853
 22
243.0231196160427
 32
0.0
 13
126.416730472853
 23
241.0231215233913
 33
0.0
  0
LINE
  5
8A1
330
893
100
AcDbEntity
  8
Schnittansichtslinien(DIN)
  6
Continuous
100
AcDbLine
 10
126.416730472853
 20
241.0231229459268
 30
0.0
 11
131.416730472853
 21
242.0231229459268
 31
0.0
  0
LINE
  5
8A2
330
893
100
AcDbEntity
  8
Schnittansichtslinien(DIN)
  6
Continuous
100
AcDbLine
 10
131.416730472853
 20
242.0231229459268
 30
0.0
 11
126.416730472853
 21
243.0231229459268
 31
0.0
  0
LINE
  5
8A3
330
893
100
AcDbEntity
  8
Schnittansichtslinien(DIN)
  6
Continuous
100
AcDbLine
 10
126.416730472853
 20
243.0231229459268
 30
0.0
 11
126.416730472853
 21
241.0231229459268
 31
0.0
  0
LINE
  5
8A4
330
893
100
AcDbEntity
  8
Schnittansichtslinien(DIN)
  6
Continuous
100
AcDbLine
 10
121.3170411297598
 20
242.0231229459268
 30
0.0
 11
126.416730472853
 21
242.0231229459268
 31
0.0
  0
LINE
  5
8A5
330
893
100
AcDbEntity
  8
Schnittansichtslinien(DIN)
  6
Continuous
100
AcDbLine
 10
126.416730472853
 20
28.47013854630105
 30
0.0
 11
131.416730472853
 21
28.47013854630105
 31
0.0
  0
POLYLINE
  5
8A6
330
893
100
AcDbEntity
  8
Schnittansichtslinien(DIN)
  6
Continuous
100
AcDb2dPolyline
 66
     1
 10
0.0
 20
0.0
 30
0.0
 70
   128
  0
VERTEX
  5
8A7
330
8A6
100
AcDbEntity
  8
Schnittansichtslinien(DIN)
  6
Continuous
100
AcDbVertex
100
AcDb2dVertex
 10
126.416730472853
 20
27.47014110041776
 30
0.0
  0
VERTEX
  5
8A8
330
8A6
100
AcDbEntity
  8
Schnittansichtslinien(DIN)
  6
Continuous
100
AcDbVertex
100
AcDb2dVertex
 10
131.416730472853
 20
28.47013537837186
 30
0.0
  0
VERTEX
  5
8AA
330
8A6
100
AcDbEntity
  8
Schnittansichtslinien(DIN)
  6
Continuous
100
AcDbVertex
100
AcDb2dVertex
 10
126.416730472853
 20
29.47013919306913
 30
0.0
  0
VERTEX
  5
8AB
330
8A6
100
AcDbEntity
  8
Schnittansichtslinien(DIN)
  6
Continuous
100
AcDbVertex
100
AcDb2dVertex
 10
126.416730472853
 20
27.47014110041776
 30
0.0
  0
SEQEND
  5
8A9
330
8A6
100
AcDbEntity
  8
Schnittansichtslinien(DIN)
  6
Continuous
  0
SOLID
  5
8AC
330
893
100
AcDbEntity
  8
Schnittansichtslinien(DIN)
100
AcDbTrace
 10
126.416730472853
 20
27.47014110041776
 30
0.0
 11
131.416730472853
 21
28.47013537837186
 31
0.0
 12
126.416730472853
 22
29.47013919306913
 32
0.0
 13
126.416730472853
 23
27.47014110041776
 33
0.0
  0
LINE
  5
8AD
330
893
100
AcDbEntity
  8
Schnittansichtslinien(DIN)
  6
Continuous
100
AcDbLine
 10
126.416730472853
 20
27.47013854630106
 30
0.0
 11
131.416730472853
 21
28.47013854630105
 31
0.0
  0
LINE
  5
8AE
330
893
100
AcDbEntity
  8
Schnittansichtslinien(DIN)
  6
Continuous
100
AcDbLine
 10
131.416730472853
 20
28.47013854630105
 30
0.0
 11
126.416730472853
 21
29.47013854630105
 31
0.0
  0
LINE
  5
8AF
330
893
100
AcDbEntity
  8
Schnittansichtslinien(DIN)
  6
Continuous
100
AcDbLine
 10
126.416730472853
 20
29.47013854630105
 30
0.0
 11
126.416730472853
 21
27.47013854630106
 31
0.0
  0
LINE
  5
8B0
330
893
100
AcDbEntity
  8
Schnittansichtslinien(DIN)
  6
Continuous
100
AcDbLine
 10
121.3170411297598
 20
28.47013854630105
 30
0.0
 11
126.416730472853
 21
28.47013854630105
 31
0.0
  0
MTEXT
  5
8B2
330
893
100
AcDbEntity
  8
Schnittansichtslinien(DIN)
100
AcDbMText
 10
113.0028588865302
 20
239.3981231582684
 30
0.0
 40
5.24999976158142
 41
0.0
 71
     7
 72
     1
  1
A
  7
Textstil14
 73
     1
 44
1.0
  0
MTEXT
  5
8B3
330
893
100
AcDbEntity
  8
Schnittansichtslinien(DIN)
100
AcDbMText
 10
113.0028588865302
 20
25.8451387586426
 30
0.0
 40
5.24999976158142
 41
0.0
 71
     7
 72
     1
  1
A
  7
Textstil14
 73
     1
 44
1.0
  0
ENDBLK
  5
895
330
893
100
AcDbEntity
  8
0
100
AcDbBlockEnd
  0
BLOCK
  5
1A72
330
1A68
100
AcDbEntity
  8
0
100
AcDbBlockBegin
  2
*D13
 70
     1
 10
0.0
 20
0.0
 30
0.0
  3
*D13
  1

  0
LINE
  5
2DCD
330
1A68
100
AcDbEntity
  8
Bemaßungen(DIN)
  6
Continuous
 62
     7
370
    25
100
AcDbLine
 10
446.9885912750621
 20
667.4316641132336
 30
0.0
 11
446.9885912750621
 21
715.9316641132336
 31
0.0
  0
LINE
  5
2DCE
330
1A68
100
AcDbEntity
  8
Bemaßungen(DIN)
  6
Continuous
 62
     7
370
    25
100
AcDbLine
 10
659.9885912750622
 20
667.4316641132336
 30
0.0
 11
659.9885912750622
 21
715.9316641132336
 31
0.0
  0
LINE
  5
2DCF
330
1A68
100
AcDbEntity
  8
Bemaßungen(DIN)
  6
Continuous
 62
     7
370
    25
100
AcDbLine
 10
449.488591275062
 20
713.4316641132336
 30
0.0
 11
657.4885912750621
 21
713.4316641132336
 31
0.0
  0
SOLID
  5
2DD0
330
1A68
100
AcDbEntity
  8
Bemaßungen(DIN)
  6
Continuous
 62
     7
100
AcDbTrace
 10
449.488591275062
 20
713.8483307799003
 30
0.0
 11
449.488591275062
 21
713.014997446567
 31
0.0
 12
446.9885912750621
 22
713.4316641132336
 32
0.0
 13
446.9885912750621
 23
713.4316641132336
 33
0.0
  0
SOLID
  5
2DD1
330
1A68
100
AcDbEntity
  8
Bemaßungen(DIN)
  6
Continuous
 62
     7
100
AcDbTrace
 10
657.4885912750621
 20
713.8483307799003
 30
0.0
 11
657.4885912750621
 21
713.014997446567
 31
0.0
 12
659.9885912750622
 22
713.4316641132336
 32
0.0
 13
659.9885912750622
 23
713.4316641132336
 33
0.0
  0
MTEXT
  5
2DD2
330
1A68
100
AcDbEntity
  8
Bemaßungen(DIN)
  6
Continuous
 62
     7
370
    25
100
AcDbMText
 10
550.1488914114879
 20
716.9971484242842
 30
0.0
 40
3.0
 41
0.0
 71
     1
 72
     1
  1
\A1;213
  7
DIN-Stepp
 73
     1
 44
1.0
  0
POINT
  5
2DD3
330
1A68
100
AcDbEntity
  8
Defpoints
  6
Continuous
 62
     0
100
AcDbPoint
 10
446.9885912750621
 20
667.4316641132336
 30
0.0
  0
POINT
  5
2DD4
330
1A68
100
AcDbEntity
  8
Defpoints
  6
Continuous
 62
     0
100
AcDbPoint
 10
659.9885912750622
 20
667.4316641132336
 30
0.0
  0
POINT
  5
2DD5
330
1A68
100
AcDbEntity
  8
Defpoints
  6
Continuous
 62
     0
100
AcDbPoint
 10
659.9885912750622
 20
713.4316641132336
 30
0.0
  0
ENDBLK
  5
1A73
330
1A68
100
AcDbEntity
  8
0
100
AcDbBlockEnd
  0
BLOCK
  5
1A7E
330
1A74
100
AcDbEntity
  8
0
100
AcDbBlockBegin
  2
*D14
 70
     1
 10
0.0
 20
0.0
 30
0.0
  3
*D14
  1

  0
LINE
  5
2DC4
330
1A74
100
AcDbEntity
  8
Bemaßungen(DIN)
  6
Continuous
 62
     7
370
    25
100
AcDbLine
 10
449.488591275062
 20
666.9316641132335
 30
0.0
 11
449.488591275062
 21
709.4316641132336
 31
0.0
  0
LINE
  5
2DC5
330
1A74
100
AcDbEntity
  8
Bemaßungen(DIN)
  6
Continuous
 62
     7
370
    25
100
AcDbLine
 10
657.4885912750621
 20
666.9316641132335
 30
0.0
 11
657.4885912750621
 21
709.4316641132336
 31
0.0
  0
LINE
  5
2DC6
330
1A74
100
AcDbEntity
  8
Bemaßungen(DIN)
  6
Continuous
 62
     7
370
    25
100
AcDbLine
 10
451.9885912750621
 20
706.9316641132336
 30
0.0
 11
654.9885912750621
 21
706.9316641132336
 31
0.0
  0
SOLID
  5
2DC7
330
1A74
100
AcDbEntity
  8
Bemaßungen(DIN)
  6
Continuous
 62
     7
100
AcDbTrace
 10
451.9885912750621
 20
707.3483307799002
 30
0.0
 11
451.9885912750621
 21
706.5149974465669
 31
0.0
 12
449.488591275062
 22
706.9316641132336
 32
0.0
 13
449.488591275062
 23
706.9316641132336
 33
0.0
  0
SOLID
  5
2DC8
330
1A74
100
AcDbEntity
  8
Bemaßungen(DIN)
  6
Continuous
 62
     7
100
AcDbTrace
 10
654.9885912750621
 20
707.3483307799002
 30
0.0
 11
654.9885912750621
 21
706.5149974465669
 31
0.0
 12
657.4885912750621
 22
706.9316641132336
 32
0.0
 13
657.4885912750621
 23
706.9316641132336
 33
0.0
  0
MTEXT
  5
2DC9
330
1A74
100
AcDbEntity
  8
Bemaßungen(DIN)
  6
Continuous
 62
     7
370
    25
100
AcDbMText
 10
550.1458218344073
 20
710.4951020395637
 30
0.0
 40
3.0
 41
0.0
 71
     1
 72
     1
  1
\A1;208
  7
DIN-Stepp
 73
     1
 44
1.0
  0
POINT
  5
2DCA
330
1A74
100
AcDbEntity
  8
Defpoints
  6
Continuous
 62
     0
100
AcDbPoint
 10
449.488591275062
 20
666.9316641132335
 30
0.0
  0
POINT
  5
2DCB
330
1A74
100
AcDbEntity
  8
Defpoints
  6
Continuous
 62
     0
100
AcDbPoint
 10
657.4885912750621
 20
666.9316641132335
 30
0.0
  0
POINT
  5
2DCC
330
1A74
100
AcDbEntity
  8
Defpoints
  6
Continuous
 62
     0
100
AcDbPoint
 10
657.4885912750621
 20
706.9316641132336
 30
0.0
  0
ENDBLK
  5
1A7F
330
1A74
100
AcDbEntity
  8
0
100
AcDbBlockEnd
  0
BLOCK
  5
1A8A
330
1A80
100
AcDbEntity
  8
0
100
AcDbBlockBegin
  2
*D15
 70
     1
 10
0.0
 20
0.0
 30
0.0
  3
*D15
  1

  0
LINE
  5
2DBB
330
1A80
100
AcDbEntity
  8
Bemaßungen(DIN)
  6
Continuous
 62
     7
370
    25
100
AcDbLine
 10
456.4885912750621
 20
659.9316641132336
 30
0.0
 11
456.4885912750621
 21
702.4316641132336
 31
0.0
  0
LINE
  5
2DBC
330
1A80
100
AcDbEntity
  8
Bemaßungen(DIN)
  6
Continuous
 62
     7
370
    25
100
AcDbLine
 10
650.4885912750621
 20
659.9316641132336
 30
0.0
 11
650.4885912750621
 21
702.4316641132336
 31
0.0
  0
LINE
  5
2DBD
330
1A80
100
AcDbEntity
  8
Bemaßungen(DIN)
  6
Continuous
 62
     7
370
    25
100
AcDbLine
 10
458.9885912750621
 20
699.9316641132336
 30
0.0
 11
647.9885912750622
 21
699.9316641132336
 31
0.0
  0
SOLID
  5
2DBE
330
1A80
100
AcDbEntity
  8
Bemaßungen(DIN)
  6
Continuous
 62
     7
100
AcDbTrace
 10
458.9885912750621
 20
700.3483307799002
 30
0.0
 11
458.9885912750621
 21
699.514997446567
 31
0.0
 12
456.4885912750621
 22
699.9316641132336
 32
0.0
 13
456.4885912750621
 23
699.9316641132336
 33
0.0
  0
SOLID
  5
2DBF
330
1A80
100
AcDbEntity
  8
Bemaßungen(DIN)
  6
Continuous
 62
     7
100
AcDbTrace
 10
647.9885912750622
 20
700.3483307799002
 30
0.0
 11
647.9885912750622
 21
699.514997446567
 31
0.0
 12
650.4885912750621
 22
699.9316641132336
 32
0.0
 13
650.4885912750621
 23
699.9316641132336
 33
0.0
  0
MTEXT
  5
2DC0
330
1A80
100
AcDbEntity
  8
Bemaßungen(DIN)
  6
Continuous
 62
     7
370
    25
100
AcDbMText
 10
550.3218109203555
 20
703.4951020395638
 30
0.0
 40
3.0
 41
0.0
 71
     1
 72
     1
  1
\A1;194
  7
DIN-Stepp
 73
     1
 44
1.0
  0
POINT
  5
2DC1
330
1A80
100
AcDbEntity
  8
Defpoints
  6
Continuous
 62
     0
100
AcDbPoint
 10
456.4885912750621
 20
659.9316641132336
 30
0.0
  0
POINT
  5
2DC2
330
1A80
100
AcDbEntity
  8
Defpoints
  6
Continuous
 62
     0
100
AcDbPoint
 10
650.4885912750621
 20
659.9316641132336
 30
0.0
  0
POINT
  5
2DC3
330
1A80
100
AcDbEntity
  8
Defpoints
  6
Continuous
 62
     0
100
AcDbPoint
 10
650.4885912750621
 20
699.9316641132336
 30
0.0
  0
ENDBLK
  5
1A8B
330
1A80
100
AcDbEntity
  8
0
100
AcDbBlockEnd
  0
BLOCK
  5
1A96
330
1A8C
100
AcDbEntity
  8
0
100
AcDbBlockBegin
  2
*D16
 70
     1
 10
0.0
 20
0.0
 30
0.0
  3
*D16
  1

  0
LINE
  5
2E1D
330
1A8C
100
AcDbEntity
  8
Bemaßungen(DIN)
  6
Continuous
 62
     7
370
    25
100
AcDbLine
 10
491.9885912750621
 20
659.9316641132336
 30
0.0
 11
491.9885912750621
 21
696.4316641132336
 31
0.0
  0
LINE
  5
2E1E
330
1A8C
100
AcDbEntity
  8
Bemaßungen(DIN)
  6
Continuous
 62
     7
370
    25
100
AcDbLine
 10
614.9885912750622
 20
659.9316641132336
 30
0.0
 11
614.9885912750622
 21
696.4316641132336
 31
0.0
  0
LINE
  5
2E1F
330
1A8C
100
AcDbEntity
  8
Bemaßungen(DIN)
  6
Continuous
 62
     7
370
    25
100
AcDbLine
 10
494.4885912750621
 20
693.9316641132336
 30
0.0
 11
612.4885912750621
 21
693.9316641132336
 31
0.0
  0
SOLID
  5
2E20
330
1A8C
100
AcDbEntity
  8
Bemaßungen(DIN)
  6
Continuous
 62
     7
100
AcDbTrace
 10
494.4885912750621
 20
694.3483307799002
 30
0.0
 11
494.4885912750621
 21
693.5149974465669
 31
0.0
 12
491.9885912750621
 22
693.9316641132336
 32
0.0
 13
491.9885912750621
 23
693.9316641132336
 33
0.0
  0
SOLID
  5
2E21
330
1A8C
100
AcDbEntity
  8
Bemaßungen(DIN)
  6
Continuous
 62
     7
100
AcDbTrace
 10
612.4885912750621
 20
694.3483307799002
 30
0.0
 11
612.4885912750621
 21
693.5149974465669
 31
0.0
 12
614.9885912750622
 22
693.9316641132336
 32
0.0
 13
614.9885912750622
 23
693.9316641132336
 33
0.0
  0
MTEXT
  5
2E22
330
1A8C
100
AcDbEntity
  8
Bemaßungen(DIN)
  6
Continuous
 62
     7
370
    25
100
AcDbMText
 10
550.3156717661944
 20
697.4971484242842
 30
0.0
 40
3.0
 41
0.0
 71
     1
 72
     1
  1
\A1;123
  7
DIN-Stepp
 73
     1
 44
1.0
  0
POINT
  5
2E23
330
1A8C
100
AcDbEntity
  8
Defpoints
  6
Continuous
 62
     0
100
AcDbPoint
 10
491.9885912750621
 20
659.9316641132336
 30
0.0
  0
POINT
  5
2E24
330
1A8C
100
AcDbEntity
  8
Defpoints
  6
Continuous
 62
     0
100
AcDbPoint
 10
614.9885912750622
 20
659.9316641132336
 30
0.0
  0
POINT
  5
2E25
330
1A8C
100
AcDbEntity
  8
Defpoints
  6
Continuous
 62
     0
100
AcDbPoint
 10
614.9885912750622
 20
693.9316641132336
 30
0.0
  0
ENDBLK
  5
1A97
330
1A8C
100
AcDbEntity
  8
0
100
AcDbBlockEnd
  0
BLOCK
  5
1AA2
330
1A98
100
AcDbEntity
  8
0
100
AcDbBlockBegin
  2
*D17
 70
     1
 10
0.0
 20
0.0
 30
0.0
  3
*D17
  1

  0
LINE
  5
2E6C
330
1A98
100
AcDbEntity
  8
Bemaßungen(DIN)
  6
Continuous
 62
     7
370
    25
100
AcDbLine
 10
697.1514991886158
 20
669.4316641132335
 30
0.0
 11
697.1514991886158
 21
701.5997172064833
 31
0.0
  0
LINE
  5
2E6D
330
1A98
100
AcDbEntity
  8
Bemaßungen(DIN)
  6
Continuous
 62
     7
370
    25
100
AcDbLine
 10
777.1514991886158
 20
666.9316641132335
 30
0.0
 11
777.1514991886158
 21
701.5997172064833
 31
0.0
  0
LINE
  5
2E6E
330
1A98
100
AcDbEntity
  8
Bemaßungen(DIN)
  6
Continuous
 62
     7
370
    25
100
AcDbLine
 10
699.6514991886158
 20
699.0997172064833
 30
0.0
 11
774.6514991886158
 21
699.0997172064833
 31
0.0
  0
SOLID
  5
2E6F
330
1A98
100
AcDbEntity
  8
Bemaßungen(DIN)
  6
Continuous
 62
     7
100
AcDbTrace
 10
699.6514991886158
 20
699.51638387315
 30
0.0
 11
699.6514991886158
 21
698.6830505398167
 31
0.0
 12
697.1514991886158
 22
699.0997172064833
 32
0.0
 13
697.1514991886158
 23
699.0997172064833
 33
0.0
  0
SOLID
  5
2E70
330
1A98
100
AcDbEntity
  8
Bemaßungen(DIN)
  6
Continuous
 62
     7
100
AcDbTrace
 10
774.6514991886158
 20
699.51638387315
 30
0.0
 11
774.6514991886158
 21
698.6830505398167
 31
0.0
 12
777.1514991886158
 22
699.0997172064833
 32
0.0
 13
777.1514991886158
 23
699.0997172064833
 33
0.0
  0
MTEXT
  5
2E71
330
1A98
100
AcDbEntity
  8
Bemaßungen(DIN)
  6
Continuous
 62
     7
370
    25
100
AcDbMText
 10
735.0058648093525
 20
702.6631551328135
 30
0.0
 40
3.0
 41
0.0
 71
     1
 72
     1
  1
\A1;80
  7
DIN-Stepp
 73
     1
 44
1.0
  0
POINT
  5
2E72
330
1A98
100
AcDbEntity
  8
Defpoints
  6
Continuous
 62
     0
100
AcDbPoint
 10
697.1514991886158
 20
669.4316641132335
 30
0.0
  0
POINT
  5
2E73
330
1A98
100
AcDbEntity
  8
Defpoints
  6
Continuous
 62
     0
100
AcDbPoint
 10
777.1514991886158
 20
666.9316641132335
 30
0.0
  0
POINT
  5
2E74
330
1A98
100
AcDbEntity
  8
Defpoints
  6
Continuous
 62
     0
100
AcDbPoint
 10
777.1514991886158
 20
699.0997172064833
 30
0.0
  0
ENDBLK
  5
1AA3
330
1A98
100
AcDbEntity
  8
0
100
AcDbBlockEnd
  0
BLOCK
  5
1AAE
330
1AA4
100
AcDbEntity
  8
0
100
AcDbBlockBegin
  2
*D18
 70
     1
 10
0.0
 20
0.0
 30
0.0
  3
*D18
  1

  0
LINE
  5
2E63
330
1AA4
100
AcDbEntity
  8
Bemaßungen(DIN)
  6
Continuous
 62
     7
370
    25
100
AcDbLine
 10
709.1514991886159
 20
656.1816641132335
 30
0.0
 11
709.1514991886159
 21
684.685365586396
 31
0.0
  0
LINE
  5
2E64
330
1AA4
100
AcDbEntity
  8
Bemaßungen(DIN)
  6
Continuous
 62
     7
370
    25
100
AcDbLine
 10
771.9514991886158
 20
656.1816641132335
 30
0.0
 11
771.9514991886158
 21
684.685365586396
 31
0.0
  0
LINE
  5
2E65
330
1AA4
100
AcDbEntity
  8
Bemaßungen(DIN)
  6
Continuous
 62
     7
370
    25
100
AcDbLine
 10
711.6514991886159
 20
682.1853655863961
 30
0.0
 11
769.4514991886157
 21
682.1853655863961
 31
0.0
  0
SOLID
  5
2E66
330
1AA4
100
AcDbEntity
  8
Bemaßungen(DIN)
  6
Continuous
 62
     7
100
AcDbTrace
 10
711.6514991886159
 20
682.6020322530626
 30
0.0
 11
711.6514991886159
 21
681.7686989197294
 31
0.0
 12
709.1514991886159
 22
682.1853655863961
 32
0.0
 13
709.1514991886159
 23
682.1853655863961
 33
0.0
  0
SOLID
  5
2E67
330
1AA4
100
AcDbEntity
  8
Bemaßungen(DIN)
  6
Continuous
 62
     7
100
AcDbTrace
 10
769.4514991886157
 20
682.6020322530626
 30
0.0
 11
769.4514991886157
 21
681.7686989197294
 31
0.0
 12
771.9514991886158
 22
682.1853655863961
 32
0.0
 13
771.9514991886158
 23
682.1853655863961
 33
0.0
  0
MTEXT
  5
2E68
330
1AA4
100
AcDbEntity
  8
Bemaßungen(DIN)
  6
Continuous
 62
     7
370
    25
100
AcDbMText
 10
736.6439275651507
 20
685.7488035127262
 30
0.0
 40
3.0
 41
0.0
 71
     1
 72
     1
  1
\A1;62.8
  7
DIN-Stepp
 73
     1
 44
1.0
  0
POINT
  5
2E69
330
1AA4
100
AcDbEntity
  8
Defpoints
  6
Continuous
 62
     0
100
AcDbPoint
 10
709.1514991886159
 20
656.1816641132335
 30
0.0
  0
POINT
  5
2E6A
330
1AA4
100
AcDbEntity
  8
Defpoints
  6
Continuous
 62
     0
100
AcDbPoint
 10
771.9514991886158
 20
656.1816641132335
 30
0.0
  0
POINT
  5
2E6B
330
1AA4
100
AcDbEntity
  8
Defpoints
  6
Continuous
 62
     0
100
AcDbPoint
 10
771.9514991886158
 20
682.1853655863961
 30
0.0
  0
ENDBLK
  5
1AAF
330
1AA4
100
AcDbEntity
  8
0
100
AcDbBlockEnd
  0
BLOCK
  5
1AB9
330
1AB0
100
AcDbEntity
  8
0
100
AcDbBlockBegin
  2
*D19
 70
     1
 10
0.0
 20
0.0
 30
0.0
  3
*D19
  1

  0
LINE
  5
2E40
330
1AB0
100
AcDbEntity
  8
Bemaßungen(DIN)
  6
Continuous
 62
     7
370
    25
100
AcDbLine
 10
735.1514991886158
 20
492.9316641132335
 30
0.0
 11
768.233684401383
 21
492.9316641132335
 31
0.0
  0
LINE
  5
2E41
330
1AB0
100
AcDbEntity
  8
Bemaßungen(DIN)
  6
Continuous
 62
     7
370
    25
100
AcDbLine
 10
765.733684401383
 20
542.9316641132336
 30
0.0
 11
765.733684401383
 21
495.4316641132336
 31
0.0
  0
MTEXT
  5
2E42
330
1AB0
100
AcDbEntity
  8
Bemaßungen(DIN)
  6
Continuous
 62
     7
370
    25
100
AcDbMText
 10
762.1702464750528
 20
515.2740924897684
 30
0.0
 40
3.0
 41
0.0
 71
     1
 72
     1
  1
\A1;52.5
  7
DIN-Stepp
 11
0.0000000000000001
 21
1.0
 31
0.0
 73
     1
 44
1.0
  0
SOLID
  5
2E43
330
1AB0
100
AcDbEntity
  8
Bemaßungen(DIN)
  6
Continuous
 62
     7
100
AcDbTrace
 10
765.3170177347163
 20
542.9316641132336
 30
0.0
 11
766.1503510680496
 21
542.9316641132336
 31
0.0
 12
765.733684401383
 22
545.4316641132336
 32
0.0
 13
765.733684401383
 23
545.4316641132336
 33
0.0
  0
SOLID
  5
2E44
330
1AB0
100
AcDbEntity
  8
Bemaßungen(DIN)
  6
Continuous
 62
     7
100
AcDbTrace
 10
765.3170177347163
 20
495.4316641132336
 30
0.0
 11
766.1503510680496
 21
495.4316641132336
 31
0.0
 12
765.733684401383
 22
492.9316641132335
 32
0.0
 13
765.733684401383
 23
492.9316641132335
 33
0.0
  0
POINT
  5
2E45
330
1AB0
100
AcDbEntity
  8
Defpoints
  6
Continuous
 62
     0
100
AcDbPoint
 10
765.733684401383
 20
545.4316641132336
 30
0.0
  0
POINT
  5
2E46
330
1AB0
100
AcDbEntity
  8
Defpoints
  6
Continuous
 62
     0
100
AcDbPoint
 10
735.1514991886158
 20
492.9316641132335
 30
0.0
  0
POINT
  5
2E47
330
1AB0
100
AcDbEntity
  8
Defpoints
  6
Continuous
 62
     0
100
AcDbPoint
 10
765.733684401383
 20
492.9316641132335
 30
0.0
  0
ENDBLK
  5
1ABA
330
1AB0
100
AcDbEntity
  8
0
100
AcDbBlockEnd
  0
BLOCK
  5
1AC5
330
1ABB
100
AcDbEntity
  8
0
100
AcDbBlockBegin
  2
*D20
 70
     1
 10
0.0
 20
0.0
 30
0.0
  3
*D20
  1

  0
LINE
  5
2E48
330
1ABB
100
AcDbEntity
  8
Bemaßungen(DIN)
  6
Continuous
 62
     7
370
    25
100
AcDbLine
 10
735.1514991886158
 20
489.4316641132335
 30
0.0
 11
735.1514991886158
 21
459.1568983592915
 31
0.0
  0
LINE
  5
2E49
330
1ABB
100
AcDbEntity
  8
Bemaßungen(DIN)
  6
Continuous
 62
     7
370
    25
100
AcDbLine
 10
697.1514991886158
 20
489.4316641132335
 30
0.0
 11
697.1514991886158
 21
459.1568983592915
 31
0.0
  0
LINE
  5
2E4A
330
1ABB
100
AcDbEntity
  8
Bemaßungen(DIN)
  6
Continuous
 62
     7
370
    25
100
AcDbLine
 10
732.6514991886158
 20
461.6568983592915
 30
0.0
 11
699.6514991886158
 21
461.6568983592915
 31
0.0
  0
SOLID
  5
2E4B
330
1ABB
100
AcDbEntity
  8
Bemaßungen(DIN)
  6
Continuous
 62
     7
100
AcDbTrace
 10
732.6514991886158
 20
462.0735650259581
 30
0.0
 11
732.6514991886158
 21
461.2402316926248
 31
0.0
 12
735.1514991886158
 22
461.6568983592915
 32
0.0
 13
735.1514991886158
 23
461.6568983592915
 33
0.0
  0
SOLID
  5
2E4C
330
1ABB
100
AcDbEntity
  8
Bemaßungen(DIN)
  6
Continuous
 62
     7
100
AcDbTrace
 10
699.6514991886158
 20
462.0735650259581
 30
0.0
 11
699.6514991886158
 21
461.2402316926248
 31
0.0
 12
697.1514991886158
 22
461.6568983592915
 32
0.0
 13
697.1514991886158
 23
461.6568983592915
 33
0.0
  0
MTEXT
  5
2E4D
330
1ABB
100
AcDbEntity
  8
Bemaßungen(DIN)
  6
Continuous
 62
     7
370
    25
100
AcDbMText
 10
712.5007488475517
 20
465.2223826703419
 30
0.0
 40
3.0
 41
0.0
 71
     1
 72
     1
  1
\A1;38
  7
DIN-Stepp
 73
     1
 44
1.0
  0
POINT
  5
2E4E
330
1ABB
100
AcDbEntity
  8
Defpoints
  6
Continuous
 62
     0
100
AcDbPoint
 10
735.1514991886158
 20
489.4316641132335
 30
0.0
  0
POINT
  5
2E4F
330
1ABB
100
AcDbEntity
  8
Defpoints
  6
Continuous
 62
     0
100
AcDbPoint
 10
697.1514991886158
 20
489.4316641132335
 30
0.0
  0
POINT
  5
2E50
330
1ABB
100
AcDbEntity
  8
Defpoints
  6
Continuous
 62
     0
100
AcDbPoint
 10
697.1514991886158
 20
461.6568983592915
 30
0.0
  0
ENDBLK
  5
1AC6
330
1ABB
100
AcDbEntity
  8
0
100
AcDbBlockEnd
  0
BLOCK
  5
1AD1
330
1AC7
100
AcDbEntity
  8
0
100
AcDbBlockBegin
  2
*D21
 70
     1
 10
0.0
 20
0.0
 30
0.0
  3
*D21
  1

  0
LINE
  5
2E51
330
1AC7
100
AcDbEntity
  8
Bemaßungen(DIN)
  6
Continuous
 62
     7
370
    25
100
AcDbLine
 10
699.9514991886159
 20
492.9316641132335
 30
0.0
 11
699.9514991886159
 21
467.9434155068805
 31
0.0
  0
LINE
  5
2E52
330
1AC7
100
AcDbEntity
  8
Bemaßungen(DIN)
  6
Continuous
 62
     7
370
    25
100
AcDbLine
 10
735.1514991886158
 20
494.8816641132335
 30
0.0
 11
735.1514991886158
 21
467.9434155068805
 31
0.0
  0
LINE
  5
2E53
330
1AC7
100
AcDbEntity
  8
Bemaßungen(DIN)
  6
Continuous
 62
     7
370
    25
100
AcDbLine
 10
702.4514991886158
 20
470.4434155068804
 30
0.0
 11
732.6514991886158
 21
470.4434155068804
 31
0.0
  0
SOLID
  5
2E54
330
1AC7
100
AcDbEntity
  8
Bemaßungen(DIN)
  6
Continuous
 62
     7
100
AcDbTrace
 10
702.4514991886158
 20
470.8600821735472
 30
0.0
 11
702.4514991886158
 21
470.0267488402138
 31
0.0
 12
699.9514991886159
 22
470.4434155068804
 32
0.0
 13
699.9514991886159
 23
470.4434155068804
 33
0.0
  0
SOLID
  5
2E55
330
1AC7
100
AcDbEntity
  8
Bemaßungen(DIN)
  6
Continuous
 62
     7
100
AcDbTrace
 10
732.6514991886158
 20
470.8600821735472
 30
0.0
 11
732.6514991886158
 21
470.0267488402138
 31
0.0
 12
735.1514991886158
 22
470.4434155068804
 32
0.0
 13
735.1514991886158
 23
470.4434155068804
 33
0.0
  0
MTEXT
  5
2E56
330
1AC7
100
AcDbEntity
  8
Bemaßungen(DIN)
  6
Continuous
 62
     7
370
    25
100
AcDbMText
 10
713.671553758875
 20
474.0088998179309
 30
0.0
 40
3.0
 41
0.0
 71
     1
 72
     1
  1
\A1;35.2
  7
DIN-Stepp
 73
     1
 44
1.0
  0
POINT
  5
2E57
330
1AC7
100
AcDbEntity
  8
Defpoints
  6
Continuous
 62
     0
100
AcDbPoint
 10
699.9514991886159
 20
492.9316641132335
 30
0.0
  0
POINT
  5
2E58
330
1AC7
100
AcDbEntity
  8
Defpoints
  6
Continuous
 62
     0
100
AcDbPoint
 10
735.1514991886158
 20
494.8816641132335
 30
0.0
  0
POINT
  5
2E59
330
1AC7
100
AcDbEntity
  8
Defpoints
  6
Continuous
 62
     0
100
AcDbPoint
 10
735.1514991886158
 20
470.4434155068804
 30
0.0
  0
ENDBLK
  5
1AD2
330
1AC7
100
AcDbEntity
  8
0
100
AcDbBlockEnd
  0
BLOCK
  5
1ADD
330
1AD3
100
AcDbEntity
  8
0
100
AcDbBlockBegin
  2
*D22
 70
     1
 10
0.0
 20
0.0
 30
0.0
  3
*D22
  1

  0
LINE
  5
2DA9
330
1AD3
100
AcDbEntity
  8
Bemaßungen(DIN)
  6
Continuous
 62
     7
370
    25
100
AcDbLine
 10
467.9460286908417
 20
511.6316641132335
 30
0.0
 11
467.9460286908417
 21
447.360286124957
 31
0.0
  0
LINE
  5
2DAA
330
1AD3
100
AcDbEntity
  8
Bemaßungen(DIN)
  6
Continuous
 62
     7
370
    25
100
AcDbLine
 10
639.0311538592825
 20
511.6316641132335
 30
0.0
 11
639.0311538592825
 21
447.360286124957
 31
0.0
  0
LINE
  5
2DAB
330
1AD3
100
AcDbEntity
  8
Bemaßungen(DIN)
  6
Continuous
 62
     7
370
    25
100
AcDbLine
 10
470.4460286908417
 20
449.8602861249571
 30
0.0
 11
636.5311538592825
 21
449.8602861249571
 31
0.0
  0
SOLID
  5
2DAC
330
1AD3
100
AcDbEntity
  8
Bemaßungen(DIN)
  6
Continuous
 62
     7
100
AcDbTrace
 10
470.4460286908417
 20
450.2769527916237
 30
0.0
 11
470.4460286908417
 21
449.4436194582903
 31
0.0
 12
467.9460286908417
 22
449.8602861249571
 32
0.0
 13
467.9460286908417
 23
449.8602861249571
 33
0.0
  0
SOLID
  5
2DAD
330
1AD3
100
AcDbEntity
  8
Bemaßungen(DIN)
  6
Continuous
 62
     7
100
AcDbTrace
 10
636.5311538592825
 20
450.2769527916237
 30
0.0
 11
636.5311538592825
 21
449.4436194582903
 31
0.0
 12
639.0311538592825
 22
449.8602861249571
 32
0.0
 13
639.0311538592825
 23
449.8602861249571
 33
0.0
  0
MTEXT
  5
2DAE
330
1AD3
100
AcDbEntity
  8
Bemaßungen(DIN)
  6
Continuous
 62
     7
370
    25
100
AcDbMText
 10
548.8576226529612
 20
453.372564433279
 30
0.0
 40
3.0
 41
0.0
 71
     1
 72
     1
  1
\A1;171.1
  7
DIN-Stepp
 73
     1
 44
1.0
  0
POINT
  5
2DAF
330
1AD3
100
AcDbEntity
  8
Defpoints
  6
Continuous
 62
     0
100
AcDbPoint
 10
467.9460286908417
 20
511.6316641132335
 30
0.0
  0
POINT
  5
2DB0
330
1AD3
100
AcDbEntity
  8
Defpoints
  6
Continuous
 62
     0
100
AcDbPoint
 10
639.0311538592825
 20
511.6316641132335
 30
0.0
  0
POINT
  5
2DB1
330
1AD3
100
AcDbEntity
  8
Defpoints
  6
Continuous
 62
     0
100
AcDbPoint
 10
639.0311538592825
 20
449.8602861249571
 30
0.0
  0
ENDBLK
  5
1ADE
330
1AD3
100
AcDbEntity
  8
0
100
AcDbBlockEnd
  0
BLOCK
  5
1AE9
330
1ADF
100
AcDbEntity
  8
0
100
AcDbBlockBegin
  2
*D23
 70
     1
 10
0.0
 20
0.0
 30
0.0
  3
*D23
  1

  0
LINE
  5
2E14
330
1ADF
100
AcDbEntity
  8
Bemaßungen(DIN)
  6
Continuous
 62
     7
370
    25
100
AcDbLine
 10
627.9460286908418
 20
505.2316641132335
 30
0.0
 11
627.9460286908418
 21
456.7316641132335
 31
0.0
  0
LINE
  5
2E15
330
1ADF
100
AcDbEntity
  8
Bemaßungen(DIN)
  6
Continuous
 62
     7
370
    25
100
AcDbLine
 10
479.0311538592825
 20
505.2316641132335
 30
0.0
 11
479.0311538592825
 21
456.7316641132335
 31
0.0
  0
LINE
  5
2E16
330
1ADF
100
AcDbEntity
  8
Bemaßungen(DIN)
  6
Continuous
 62
     7
370
    25
100
AcDbLine
 10
625.4460286908417
 20
459.2316641132335
 30
0.0
 11
481.5311538592825
 21
459.2316641132335
 31
0.0
  0
SOLID
  5
2E17
330
1ADF
100
AcDbEntity
  8
Bemaßungen(DIN)
  6
Continuous
 62
     7
100
AcDbTrace
 10
625.4460286908417
 20
459.6483307799002
 30
0.0
 11
625.4460286908417
 21
458.8149974465668
 31
0.0
 12
627.9460286908418
 22
459.2316641132335
 32
0.0
 13
627.9460286908418
 23
459.2316641132335
 33
0.0
  0
SOLID
  5
2E18
330
1ADF
100
AcDbEntity
  8
Bemaßungen(DIN)
  6
Continuous
 62
     7
100
AcDbTrace
 10
481.5311538592825
 20
459.6483307799002
 30
0.0
 11
481.5311538592825
 21
458.8149974465668
 31
0.0
 12
479.0311538592825
 22
459.2316641132335
 32
0.0
 13
479.0311538592825
 23
459.2316641132335
 33
0.0
  0
MTEXT
  5
2E19
330
1ADF
100
AcDbEntity
  8
Bemaßungen(DIN)
  6
Continuous
 62
     7
370
    25
100
AcDbMText
 10
548.5649896379543
 20
462.7951020395636
 30
0.0
 40
3.0
 41
0.0
 71
     1
 72
     1
  1
\A1;148.9
  7
DIN-Stepp
 73
     1
 44
1.0
  0
POINT
  5
2E1A
330
1ADF
100
AcDbEntity
  8
Defpoints
  6
Continuous
 62
     0
100
AcDbPoint
 10
627.9460286908418
 20
505.2316641132335
 30
0.0
  0
POINT
  5
2E1B
330
1ADF
100
AcDbEntity
  8
Defpoints
  6
Continuous
 62
     0
100
AcDbPoint
 10
479.0311538592825
 20
505.2316641132335
 30
0.0
  0
POINT
  5
2E1C
330
1ADF
100
AcDbEntity
  8
Defpoints
  6
Continuous
 62
     0
100
AcDbPoint
 10
479.0311538592825
 20
459.2316641132335
 30
0.0
  0
ENDBLK
  5
1AEA
330
1ADF
100
AcDbEntity
  8
0
100
AcDbBlockEnd
  0
BLOCK
  5
1AF5
330
1AEB
100
AcDbEntity
  8
0
100
AcDbBlockBegin
  2
*D24
 70
     1
 10
0.0
 20
0.0
 30
0.0
  3
*D24
  1

  0
LINE
  5
2E0B
330
1AEB
100
AcDbEntity
  8
Bemaßungen(DIN)
  6
Continuous
 62
     7
370
    25
100
AcDbLine
 10
483.4885912750621
 20
486.9316641132336
 30
0.0
 11
483.4885912750621
 21
479.4711166022306
 31
0.0
  0
LINE
  5
2E0C
330
1AEB
100
AcDbEntity
  8
Bemaßungen(DIN)
  6
Continuous
 62
     7
370
    25
100
AcDbLine
 10
511.4885912750621
 20
486.9316641132336
 30
0.0
 11
511.4885912750621
 21
479.4711166022306
 31
0.0
  0
LINE
  5
2E0D
330
1AEB
100
AcDbEntity
  8
Bemaßungen(DIN)
  6
Continuous
 62
     7
370
    25
100
AcDbLine
 10
485.9885912750621
 20
481.9711166022306
 30
0.0
 11
508.9885912750621
 21
481.9711166022306
 31
0.0
  0
SOLID
  5
2E0E
330
1AEB
100
AcDbEntity
  8
Bemaßungen(DIN)
  6
Continuous
 62
     7
100
AcDbTrace
 10
485.9885912750621
 20
482.3877832688973
 30
0.0
 11
485.9885912750621
 21
481.5544499355639
 31
0.0
 12
483.4885912750621
 22
481.9711166022306
 32
0.0
 13
483.4885912750621
 23
481.9711166022306
 33
0.0
  0
SOLID
  5
2E0F
330
1AEB
100
AcDbEntity
  8
Bemaßungen(DIN)
  6
Continuous
 62
     7
100
AcDbTrace
 10
508.9885912750621
 20
482.3877832688973
 30
0.0
 11
508.9885912750621
 21
481.5544499355639
 31
0.0
 12
511.4885912750621
 22
481.9711166022306
 32
0.0
 13
511.4885912750621
 23
481.9711166022306
 33
0.0
  0
MTEXT
  5
2E10
330
1AEB
100
AcDbEntity
  8
Bemaßungen(DIN)
  6
Continuous
 62
     7
370
    25
100
AcDbMText
 10
495.3112379326338
 20
485.5345545285608
 30
0.0
 40
3.0
 41
0.0
 71
     1
 72
     1
  1
\A1;28
  7
DIN-Stepp
 73
     1
 44
1.0
  0
POINT
  5
2E11
330
1AEB
100
AcDbEntity
  8
Defpoints
  6
Continuous
 62
     0
100
AcDbPoint
 10
483.4885912750621
 20
486.9316641132336
 30
0.0
  0
POINT
  5
2E12
330
1AEB
100
AcDbEntity
  8
Defpoints
  6
Continuous
 62
     0
100
AcDbPoint
 10
511.4885912750621
 20
486.9316641132336
 30
0.0
  0
POINT
  5
2E13
330
1AEB
100
AcDbEntity
  8
Defpoints
  6
Continuous
 62
     0
100
AcDbPoint
 10
511.4885912750621
 20
481.9711166022306
 30
0.0
  0
ENDBLK
  5
1AF6
330
1AEB
100
AcDbEntity
  8
0
100
AcDbBlockEnd
  0
BLOCK
  5
1B01
330
1AF7
100
AcDbEntity
  8
0
100
AcDbBlockBegin
  2
*D25
 70
     1
 10
0.0
 20
0.0
 30
0.0
  3
*D25
  1

  0
LINE
  5
2E02
330
1AF7
100
AcDbEntity
  8
Bemaßungen(DIN)
  6
Continuous
 62
     7
370
    25
100
AcDbLine
 10
483.4885912750621
 20
486.9316641132336
 30
0.0
 11
483.4885912750621
 21
471.5759550807234
 31
0.0
  0
LINE
  5
2E03
330
1AF7
100
AcDbEntity
  8
Bemaßungen(DIN)
  6
Continuous
 62
     7
370
    25
100
AcDbLine
 10
623.4885912750621
 20
486.9316641132336
 30
0.0
 11
623.4885912750621
 21
471.5759550807234
 31
0.0
  0
LINE
  5
2E04
330
1AF7
100
AcDbEntity
  8
Bemaßungen(DIN)
  6
Continuous
 62
     7
370
    25
100
AcDbLine
 10
485.9885912750621
 20
474.0759550807235
 30
0.0
 11
620.9885912750621
 21
474.0759550807235
 31
0.0
  0
SOLID
  5
2E05
330
1AF7
100
AcDbEntity
  8
Bemaßungen(DIN)
  6
Continuous
 62
     7
100
AcDbTrace
 10
485.9885912750621
 20
474.4926217473901
 30
0.0
 11
485.9885912750621
 21
473.6592884140567
 31
0.0
 12
483.4885912750621
 22
474.0759550807235
 32
0.0
 13
483.4885912750621
 23
474.0759550807235
 33
0.0
  0
SOLID
  5
2E06
330
1AF7
100
AcDbEntity
  8
Bemaßungen(DIN)
  6
Continuous
 62
     7
100
AcDbTrace
 10
620.9885912750621
 20
474.4926217473901
 30
0.0
 11
620.9885912750621
 21
473.6592884140567
 31
0.0
 12
623.4885912750621
 22
474.0759550807235
 32
0.0
 13
623.4885912750621
 23
474.0759550807235
 33
0.0
  0
MTEXT
  5
2E07
330
1AF7
100
AcDbEntity
  8
Bemaßungen(DIN)
  6
Continuous
 62
     7
370
    25
100
AcDbMText
 10
546.7948668548712
 20
477.6393930070536
 30
0.0
 40
3.0
 41
0.0
 71
     1
 72
     1
  1
\A1; 5 x 28 
  7
DIN-Stepp
 73
     1
 44
1.0
  0
POINT
  5
2E08
330
1AF7
100
AcDbEntity
  8
Defpoints
  6
Continuous
 62
     0
100
AcDbPoint
 10
483.4885912750621
 20
486.9316641132336
 30
0.0
  0
POINT
  5
2E09
330
1AF7
100
AcDbEntity
  8
Defpoints
  6
Continuous
 62
     0
100
AcDbPoint
 10
623.4885912750621
 20
486.9316641132336
 30
0.0
  0
POINT
  5
2E0A
330
1AF7
100
AcDbEntity
  8
Defpoints
  6
Continuous
 62
     0
100
AcDbPoint
 10
623.4885912750621
 20
474.0759550807235
 30
0.0
  0
ENDBLK
  5
1B02
330
1AF7
100
AcDbEntity
  8
0
100
AcDbBlockEnd
  0
BLOCK
  5
1B0D
330
1B03
100
AcDbEntity
  8
0
100
AcDbBlockBegin
  2
*D26
 70
     1
 10
0.0
 20
0.0
 30
0.0
  3
*D26
  1

  0
LINE
  5
2DF1
330
1B03
100
AcDbEntity
  8
Bemaßungen(DIN)
  6
Continuous
 62
     7
370
    25
100
AcDbLine
 10
448.9885912750621
 20
669.4316641132335
 30
0.0
 11
427.7827746504168
 21
669.4316641132335
 31
0.0
  0
LINE
  5
2DF2
330
1B03
100
AcDbEntity
  8
Bemaßungen(DIN)
  6
Continuous
 62
     7
370
    25
100
AcDbLine
 10
448.9885912750621
 20
545.4316641132335
 30
0.0
 11
427.7827746504167
 21
545.4316641132335
 31
0.0
  0
LINE
  5
2DF3
330
1B03
100
AcDbEntity
  8
Bemaßungen(DIN)
  6
Continuous
 62
     7
370
    25
100
AcDbLine
 10
430.2827746504168
 20
666.9316641132335
 30
0.0
 11
430.2827746504167
 21
547.9316641132335
 31
0.0
  0
MTEXT
  5
2DF4
330
1B03
100
AcDbEntity
  8
Bemaßungen(DIN)
  6
Continuous
 62
     7
370
    25
100
AcDbMText
 10
426.7704963420948
 20
604.2648837585268
 30
0.0
 40
3.0
 41
0.0
 71
     1
 72
     1
  1
\A1;124
  7
DIN-Stepp
 11
0.0000000000000001
 21
1.0
 31
0.0
 73
     1
 44
1.0
  0
SOLID
  5
2DF5
330
1B03
100
AcDbEntity
  8
Bemaßungen(DIN)
  6
Continuous
 62
     7
100
AcDbTrace
 10
429.8661079837501
 20
666.9316641132335
 30
0.0
 11
430.6994413170834
 21
666.9316641132335
 31
0.0
 12
430.2827746504168
 22
669.4316641132335
 32
0.0
 13
430.2827746504168
 23
669.4316641132335
 33
0.0
  0
SOLID
  5
2DF6
330
1B03
100
AcDbEntity
  8
Bemaßungen(DIN)
  6
Continuous
 62
     7
100
AcDbTrace
 10
429.86610798375
 20
547.9316641132335
 30
0.0
 11
430.6994413170833
 21
547.9316641132335
 31
0.0
 12
430.2827746504167
 22
545.4316641132335
 32
0.0
 13
430.2827746504167
 23
545.4316641132335
 33
0.0
  0
POINT
  5
2DF7
330
1B03
100
AcDbEntity
  8
Defpoints
  6
Continuous
 62
     0
100
AcDbPoint
 10
448.9885912750621
 20
669.4316641132335
 30
0.0
  0
POINT
  5
2DF8
330
1B03
100
AcDbEntity
  8
Defpoints
  6
Continuous
 62
     0
100
AcDbPoint
 10
448.9885912750621
 20
545.4316641132335
 30
0.0
  0
POINT
  5
2DF9
330
1B03
100
AcDbEntity
  8
Defpoints
  6
Continuous
 62
     0
100
AcDbPoint
 10
430.2827746504167
 20
545.4316641132335
 30
0.0
  0
ENDBLK
  5
1B0E
330
1B03
100
AcDbEntity
  8
0
100
AcDbBlockEnd
  0
BLOCK
  5
1B19
330
1B0F
100
AcDbEntity
  8
0
100
AcDbBlockBegin
  2
*D27
 70
     1
 10
0.0
 20
0.0
 30
0.0
  3
*D27
  1

  0
LINE
  5
2DE8
330
1B0F
100
AcDbEntity
  8
Bemaßungen(DIN)
  6
Continuous
 62
     7
370
    25
100
AcDbLine
 10
449.488591275062
 20
666.9316641132335
 30
0.0
 11
432.6413829891708
 21
666.9316641132335
 31
0.0
  0
LINE
  5
2DE9
330
1B0F
100
AcDbEntity
  8
Bemaßungen(DIN)
  6
Continuous
 62
     7
370
    25
100
AcDbLine
 10
449.488591275062
 20
547.9316641132335
 30
0.0
 11
432.6413829891707
 21
547.9316641132335
 31
0.0
  0
LINE
  5
2DEA
330
1B0F
100
AcDbEntity
  8
Bemaßungen(DIN)
  6
Continuous
 62
     7
370
    25
100
AcDbLine
 10
435.1413829891708
 20
664.4316641132335
 30
0.0
 11
435.1413829891708
 21
550.4316641132334
 31
0.0
  0
MTEXT
  5
2DEB
330
1B0F
100
AcDbEntity
  8
Bemaßungen(DIN)
  6
Continuous
 62
     7
370
    25
100
AcDbMText
 10
431.5779450628406
 20
604.2556750272853
 30
0.0
 40
3.0
 41
0.0
 71
     1
 72
     1
  1
\A1;119
  7
DIN-Stepp
 11
0.0000000000000001
 21
1.0
 31
0.0
 73
     1
 44
1.0
  0
SOLID
  5
2DEC
330
1B0F
100
AcDbEntity
  8
Bemaßungen(DIN)
  6
Continuous
 62
     7
100
AcDbTrace
 10
434.7247163225041
 20
664.4316641132335
 30
0.0
 11
435.5580496558375
 21
664.4316641132335
 31
0.0
 12
435.1413829891708
 22
666.9316641132335
 32
0.0
 13
435.1413829891708
 23
666.9316641132335
 33
0.0
  0
SOLID
  5
2DED
330
1B0F
100
AcDbEntity
  8
Bemaßungen(DIN)
  6
Continuous
 62
     7
100
AcDbTrace
 10
434.724716322504
 20
550.4316641132334
 30
0.0
 11
435.5580496558374
 21
550.4316641132334
 31
0.0
 12
435.1413829891708
 22
547.9316641132335
 32
0.0
 13
435.1413829891708
 23
547.9316641132335
 33
0.0
  0
POINT
  5
2DEE
330
1B0F
100
AcDbEntity
  8
Defpoints
  6
Continuous
 62
     0
100
AcDbPoint
 10
449.488591275062
 20
666.9316641132335
 30
0.0
  0
POINT
  5
2DEF
330
1B0F
100
AcDbEntity
  8
Defpoints
  6
Continuous
 62
     0
100
AcDbPoint
 10
449.488591275062
 20
547.9316641132335
 30
0.0
  0
POINT
  5
2DF0
330
1B0F
100
AcDbEntity
  8
Defpoints
  6
Continuous
 62
     0
100
AcDbPoint
 10
435.1413829891708
 20
547.9316641132335
 30
0.0
  0
ENDBLK
  5
1B1A
330
1B0F
100
AcDbEntity
  8
0
100
AcDbBlockEnd
  0
BLOCK
  5
1B25
330
1B1B
100
AcDbEntity
  8
0
100
AcDbBlockBegin
  2
*D28
 70
     1
 10
0.0
 20
0.0
 30
0.0
  3
*D28
  1

  0
LINE
  5
2DDF
330
1B1B
100
AcDbEntity
  8
Bemaßungen(DIN)
  6
Continuous
 62
     7
370
    25
100
AcDbLine
 10
456.4885912750622
 20
554.9316641132334
 30
0.0
 11
439.0125669771889
 21
554.9316641132334
 31
0.0
  0
LINE
  5
2DE0
330
1B1B
100
AcDbEntity
  8
Bemaßungen(DIN)
  6
Continuous
 62
     7
370
    25
100
AcDbLine
 10
456.4885912750621
 20
659.9316641132336
 30
0.0
 11
439.012566977189
 21
659.9316641132336
 31
0.0
  0
LINE
  5
2DE1
330
1B1B
100
AcDbEntity
  8
Bemaßungen(DIN)
  6
Continuous
 62
     7
370
    25
100
AcDbLine
 10
441.512566977189
 20
557.4316641132335
 30
0.0
 11
441.5125669771891
 21
657.4316641132336
 31
0.0
  0
MTEXT
  5
2DE2
330
1B1B
100
AcDbEntity
  8
Bemaßungen(DIN)
  6
Continuous
 62
     7
370
    25
100
AcDbMText
 10
437.9491290508589
 20
604.2474894884041
 30
0.0
 40
3.0
 41
0.0
 71
     1
 72
     1
  1
\A1;105
  7
DIN-Stepp
 11
0.0000000000000001
 21
1.0
 31
0.0
 73
     1
 44
1.0
  0
SOLID
  5
2DE3
330
1B1B
100
AcDbEntity
  8
Bemaßungen(DIN)
  6
Continuous
 62
     7
100
AcDbTrace
 10
441.0959003105223
 20
557.4316641132335
 30
0.0
 11
441.9292336438557
 21
557.4316641132335
 31
0.0
 12
441.512566977189
 22
554.9316641132334
 32
0.0
 13
441.512566977189
 23
554.9316641132334
 33
0.0
  0
SOLID
  5
2DE4
330
1B1B
100
AcDbEntity
  8
Bemaßungen(DIN)
  6
Continuous
 62
     7
100
AcDbTrace
 10
441.0959003105223
 20
657.4316641132336
 30
0.0
 11
441.9292336438557
 21
657.4316641132336
 31
0.0
 12
441.5125669771891
 22
659.9316641132336
 32
0.0
 13
441.5125669771891
 23
659.9316641132336
 33
0.0
  0
POINT
  5
2DE5
330
1B1B
100
AcDbEntity
  8
Defpoints
  6
Continuous
 62
     0
100
AcDbPoint
 10
456.4885912750622
 20
554.9316641132334
 30
0.0
  0
POINT
  5
2DE6
330
1B1B
100
AcDbEntity
  8
Defpoints
  6
Continuous
 62
     0
100
AcDbPoint
 10
456.4885912750621
 20
659.9316641132336
 30
0.0
  0
POINT
  5
2DE7
330
1B1B
100
AcDbEntity
  8
Defpoints
  6
Continuous
 62
     0
100
AcDbPoint
 10
441.5125669771891
 20
659.9316641132336
 30
0.0
  0
ENDBLK
  5
1B26
330
1B1B
100
AcDbEntity
  8
0
100
AcDbBlockEnd
  0
BLOCK
  5
1B30
330
1B27
100
AcDbEntity
  8
0
100
AcDbBlockBegin
  2
*D29
 70
     1
 10
0.0
 20
0.0
 30
0.0
  3
*D29
  1

  0
LINE
  5
2E26
330
1B27
100
AcDbEntity
  8
Bemaßungen(DIN)
  6
Continuous
 62
     7
370
    25
100
AcDbLine
 10
553.4885912750621
 20
638.4316641132336
 30
0.0
 11
577.8848375883383
 21
638.4316641132336
 31
0.0
  0
LINE
  5
2E27
330
1B27
100
AcDbEntity
  8
Bemaßungen(DIN)
  6
Continuous
 62
     7
370
    25
100
AcDbLine
 10
575.3848375883384
 20
666.9316641132335
 30
0.0
 11
575.3848375883384
 21
640.9316641132336
 31
0.0
  0
MTEXT
  5
2E28
330
1B27
100
AcDbEntity
  8
Bemaßungen(DIN)
  6
Continuous
 62
     7
370
    25
100
AcDbMText
 10
571.8193532772878
 20
651.3235467871762
 30
0.0
 40
3.0
 41
0.0
 71
     1
 72
     1
  1
\A1;31
  7
DIN-Stepp
 11
0.0000000000000001
 21
1.0
 31
0.0
 73
     1
 44
1.0
  0
SOLID
  5
2E29
330
1B27
100
AcDbEntity
  8
Bemaßungen(DIN)
  6
Continuous
 62
     7
100
AcDbTrace
 10
574.9681709216718
 20
666.9316641132335
 30
0.0
 11
575.801504255005
 21
666.9316641132335
 31
0.0
 12
575.3848375883384
 22
669.4316641132335
 32
0.0
 13
575.3848375883384
 23
669.4316641132335
 33
0.0
  0
SOLID
  5
2E2A
330
1B27
100
AcDbEntity
  8
Bemaßungen(DIN)
  6
Continuous
 62
     7
100
AcDbTrace
 10
574.9681709216718
 20
640.9316641132336
 30
0.0
 11
575.801504255005
 21
640.9316641132336
 31
0.0
 12
575.3848375883384
 22
638.4316641132336
 32
0.0
 13
575.3848375883384
 23
638.4316641132336
 33
0.0
  0
POINT
  5
2E2B
330
1B27
100
AcDbEntity
  8
Defpoints
  6
Continuous
 62
     0
100
AcDbPoint
 10
575.3848375883384
 20
669.4316641132335
 30
0.0
  0
POINT
  5
2E2C
330
1B27
100
AcDbEntity
  8
Defpoints
  6
Continuous
 62
     0
100
AcDbPoint
 10
553.4885912750621
 20
638.4316641132336
 30
0.0
  0
POINT
  5
2E2D
330
1B27
100
AcDbEntity
  8
Defpoints
  6
Continuous
 62
     0
100
AcDbPoint
 10
575.3848375883384
 20
638.4316641132336
 30
0.0
  0
ENDBLK
  5
1B31
330
1B27
100
AcDbEntity
  8
0
100
AcDbBlockEnd
  0
BLOCK
  5
1B3C
330
1B32
100
AcDbEntity
  8
0
100
AcDbBlockBegin
  2
*D30
 70
     1
 10
0.0
 20
0.0
 30
0.0
  3
*D30
  1

  0
LINE
  5
2DD6
330
1B32
100
AcDbEntity
  8
Bemaßungen(DIN)
  6
Continuous
 62
     7
370
    25
100
AcDbLine
 10
627.9460286908418
 20
505.2316641132335
 30
0.0
 11
593.2531555280994
 21
505.2316641132335
 31
0.0
  0
LINE
  5
2DD7
330
1B32
100
AcDbEntity
  8
Bemaßungen(DIN)
  6
Continuous
 62
     7
370
    25
100
AcDbLine
 10
553.4885912750621
 20
638.4316641132336
 30
0.0
 11
598.2531555280994
 21
638.4316641132336
 31
0.0
  0
LINE
  5
2DD8
330
1B32
100
AcDbEntity
  8
Bemaßungen(DIN)
  6
Continuous
 62
     7
370
    25
100
AcDbLine
 10
595.7531555280994
 20
507.7316641132335
 30
0.0
 11
595.7531555280994
 21
635.9316641132336
 31
0.0
  0
MTEXT
  5
2DD9
330
1B32
100
AcDbEntity
  8
Bemaßungen(DIN)
  6
Continuous
 62
     7
370
    25
100
AcDbMText
 10
592.1876712170488
 20
566.9264799386086
 30
0.0
 40
3.0
 41
0.0
 71
     1
 72
     1
  1
\A1;133.2
  7
DIN-Stepp
 11
0.0000000000000001
 21
1.0
 31
0.0
 73
     1
 44
1.0
  0
SOLID
  5
2DDA
330
1B32
100
AcDbEntity
  8
Bemaßungen(DIN)
  6
Continuous
 62
     7
100
AcDbTrace
 10
595.3364888614328
 20
507.7316641132335
 30
0.0
 11
596.1698221947661
 21
507.7316641132335
 31
0.0
 12
595.7531555280994
 22
505.2316641132335
 32
0.0
 13
595.7531555280994
 23
505.2316641132335
 33
0.0
  0
SOLID
  5
2DDB
330
1B32
100
AcDbEntity
  8
Bemaßungen(DIN)
  6
Continuous
 62
     7
100
AcDbTrace
 10
595.3364888614328
 20
635.9316641132336
 30
0.0
 11
596.1698221947661
 21
635.9316641132336
 31
0.0
 12
595.7531555280994
 22
638.4316641132336
 32
0.0
 13
595.7531555280994
 23
638.4316641132336
 33
0.0
  0
POINT
  5
2DDC
330
1B32
100
AcDbEntity
  8
Defpoints
  6
Continuous
 62
     0
100
AcDbPoint
 10
627.9460286908418
 20
505.2316641132335
 30
0.0
  0
POINT
  5
2DDD
330
1B32
100
AcDbEntity
  8
Defpoints
  6
Continuous
 62
     0
100
AcDbPoint
 10
553.4885912750621
 20
638.4316641132336
 30
0.0
  0
POINT
  5
2DDE
330
1B32
100
AcDbEntity
  8
Defpoints
  6
Continuous
 62
     0
100
AcDbPoint
 10
595.7531555280994
 20
638.4316641132336
 30
0.0
  0
ENDBLK
  5
1B3D
330
1B32
100
AcDbEntity
  8
0
100
AcDbBlockEnd
  0
BLOCK
  5
1B48
330
1B3E
100
AcDbEntity
  8
0
100
AcDbBlockBegin
  2
*D31
 70
     1
 10
0.0
 20
0.0
 30
0.0
  3
*D31
  1

  0
LINE
  5
2DB2
330
1B3E
100
AcDbEntity
  8
Bemaßungen(DIN)
  6
Continuous
 62
     7
370
    25
100
AcDbLine
 10
553.4885912750621
 20
638.4316641132336
 30
0.0
 11
626.5424859999896
 21
638.4316641132336
 31
0.0
  0
LINE
  5
2DB3
330
1B3E
100
AcDbEntity
  8
Bemaßungen(DIN)
  6
Continuous
 62
     7
370
    25
100
AcDbLine
 10
639.0311538592825
 20
511.6316641132335
 30
0.0
 11
621.5424859999895
 21
511.6316641132335
 31
0.0
  0
LINE
  5
2DB4
330
1B3E
100
AcDbEntity
  8
Bemaßungen(DIN)
  6
Continuous
 62
     7
370
    25
100
AcDbLine
 10
624.0424859999896
 20
635.9316641132336
 30
0.0
 11
624.0424859999896
 21
514.1316641132335
 31
0.0
  0
MTEXT
  5
2DB5
330
1B3E
100
AcDbEntity
  8
Bemaßungen(DIN)
  6
Continuous
 62
     7
370
    25
100
AcDbMText
 10
620.4790480736594
 20
570.1080624761257
 30
0.0
 40
3.0
 41
0.0
 71
     1
 72
     1
  1
\A1;126.8
  7
DIN-Stepp
 11
0.0000000000000001
 21
1.0
 31
0.0
 73
     1
 44
1.0
  0
SOLID
  5
2DB6
330
1B3E
100
AcDbEntity
  8
Bemaßungen(DIN)
  6
Continuous
 62
     7
100
AcDbTrace
 10
623.6258193333229
 20
635.9316641132336
 30
0.0
 11
624.4591526666562
 21
635.9316641132336
 31
0.0
 12
624.0424859999896
 22
638.4316641132336
 32
0.0
 13
624.0424859999896
 23
638.4316641132336
 33
0.0
  0
SOLID
  5
2DB7
330
1B3E
100
AcDbEntity
  8
Bemaßungen(DIN)
  6
Continuous
 62
     7
100
AcDbTrace
 10
623.6258193333229
 20
514.1316641132335
 30
0.0
 11
624.4591526666562
 21
514.1316641132335
 31
0.0
 12
624.0424859999896
 22
511.6316641132335
 32
0.0
 13
624.0424859999896
 23
511.6316641132335
 33
0.0
  0
POINT
  5
2DB8
330
1B3E
100
AcDbEntity
  8
Defpoints
  6
Continuous
 62
     0
100
AcDbPoint
 10
553.4885912750621
 20
638.4316641132336
 30
0.0
  0
POINT
  5
2DB9
330
1B3E
100
AcDbEntity
  8
Defpoints
  6
Continuous
 62
     0
100
AcDbPoint
 10
639.0311538592825
 20
511.6316641132335
 30
0.0
  0
POINT
  5
2DBA
330
1B3E
100
AcDbEntity
  8
Defpoints
  6
Continuous
 62
     0
100
AcDbPoint
 10
624.0424859999896
 20
511.6316641132335
 30
0.0
  0
ENDBLK
  5
1B49
330
1B3E
100
AcDbEntity
  8
0
100
AcDbBlockEnd
  0
BLOCK
  5
1B54
330
1B4A
100
AcDbEntity
  8
0
100
AcDbBlockBegin
  2
*D32
 70
     1
 10
0.0
 20
0.0
 30
0.0
  3
*D32
  1

  0
LINE
  5
2E7F
330
1B4A
100
AcDbEntity
  8
Bemaßungen(DIN)
  6
Continuous
 62
     7
370
    25
100
AcDbLine
 10
657.9885912750621
 20
669.4316641132335
 30
0.0
 11
669.4873564438093
 21
669.4316641132335
 31
0.0
  0
LINE
  5
2E80
330
1B4A
100
AcDbEntity
  8
Bemaßungen(DIN)
  6
Continuous
 62
     7
370
    25
100
AcDbLine
 10
649.9885912750621
 20
634.4316641132336
 30
0.0
 11
669.4873564438093
 21
634.4316641132336
 31
0.0
  0
LINE
  5
2E81
330
1B4A
100
AcDbEntity
  8
Bemaßungen(DIN)
  6
Continuous
 62
     7
370
    25
100
AcDbLine
 10
666.9873564438094
 20
666.9316641132335
 30
0.0
 11
666.9873564438094
 21
636.9316641132336
 31
0.0
  0
MTEXT
  5
2E82
330
1B4A
100
AcDbEntity
  8
Bemaßungen(DIN)
  6
Continuous
 62
     7
370
    25
100
AcDbMText
 10
663.4218721327588
 20
650.7727282332882
 30
0.0
 40
3.0
 41
0.0
 71
     1
 72
     1
  1
\A1;35
  7
DIN-Stepp
 11
0.0000000000000001
 21
1.0
 31
0.0
 73
     1
 44
1.0
  0
SOLID
  5
2E83
330
1B4A
100
AcDbEntity
  8
Bemaßungen(DIN)
  6
Continuous
 62
     7
100
AcDbTrace
 10
666.5706897771427
 20
666.9316641132335
 30
0.0
 11
667.404023110476
 21
666.9316641132335
 31
0.0
 12
666.9873564438094
 22
669.4316641132335
 32
0.0
 13
666.9873564438094
 23
669.4316641132335
 33
0.0
  0
SOLID
  5
2E84
330
1B4A
100
AcDbEntity
  8
Bemaßungen(DIN)
  6
Continuous
 62
     7
100
AcDbTrace
 10
666.5706897771427
 20
636.9316641132336
 30
0.0
 11
667.404023110476
 21
636.9316641132336
 31
0.0
 12
666.9873564438094
 22
634.4316641132336
 32
0.0
 13
666.9873564438094
 23
634.4316641132336
 33
0.0
  0
POINT
  5
2E85
330
1B4A
100
AcDbEntity
  8
Defpoints
  6
Continuous
 62
     0
100
AcDbPoint
 10
657.9885912750621
 20
669.4316641132335
 30
0.0
  0
POINT
  5
2E86
330
1B4A
100
AcDbEntity
  8
Defpoints
  6
Continuous
 62
     0
100
AcDbPoint
 10
649.9885912750621
 20
634.4316641132336
 30
0.0
  0
POINT
  5
2E87
330
1B4A
100
AcDbEntity
  8
Defpoints
  6
Continuous
 62
     0
100
AcDbPoint
 10
666.9873564438094
 20
634.4316641132336
 30
0.0
  0
ENDBLK
  5
1B55
330
1B4A
100
AcDbEntity
  8
0
100
AcDbBlockEnd
  0
BLOCK
  5
1B60
330
1B56
100
AcDbEntity
  8
0
100
AcDbBlockBegin
  2
*D33
 70
     1
 10
0.0
 20
0.0
 30
0.0
  3
*D33
  1

  0
LINE
  5
2E37
330
1B56
100
AcDbEntity
  8
Bemaßungen(DIN)
  6
Continuous
 62
     7
370
    25
100
AcDbLine
 10
657.9885912750621
 20
669.4316641132335
 30
0.0
 11
675.4506196235404
 21
669.4316641132335
 31
0.0
  0
LINE
  5
2E38
330
1B56
100
AcDbEntity
  8
Bemaßungen(DIN)
  6
Continuous
 62
     7
370
    25
100
AcDbLine
 10
649.9885912750621
 20
578.4316641132336
 30
0.0
 11
675.4506196235404
 21
578.4316641132336
 31
0.0
  0
LINE
  5
2E39
330
1B56
100
AcDbEntity
  8
Bemaßungen(DIN)
  6
Continuous
 62
     7
370
    25
100
AcDbLine
 10
672.9506196235404
 20
666.9316641132335
 30
0.0
 11
672.9506196235404
 21
580.9316641132336
 31
0.0
  0
MTEXT
  5
2E3A
330
1B56
100
AcDbEntity
  8
Bemaßungen(DIN)
  6
Continuous
 62
     7
370
    25
100
AcDbMText
 10
669.3871816972102
 20
622.0725235948162
 30
0.0
 40
3.0
 41
0.0
 71
     1
 72
     1
  1
\A1;91
  7
DIN-Stepp
 11
0.0000000000000001
 21
1.0
 31
0.0
 73
     1
 44
1.0
  0
SOLID
  5
2E3B
330
1B56
100
AcDbEntity
  8
Bemaßungen(DIN)
  6
Continuous
 62
     7
100
AcDbTrace
 10
672.5339529568738
 20
666.9316641132335
 30
0.0
 11
673.3672862902071
 21
666.9316641132335
 31
0.0
 12
672.9506196235404
 22
669.4316641132335
 32
0.0
 13
672.9506196235404
 23
669.4316641132335
 33
0.0
  0
SOLID
  5
2E3C
330
1B56
100
AcDbEntity
  8
Bemaßungen(DIN)
  6
Continuous
 62
     7
100
AcDbTrace
 10
672.5339529568738
 20
580.9316641132336
 30
0.0
 11
673.3672862902071
 21
580.9316641132336
 31
0.0
 12
672.9506196235404
 22
578.4316641132336
 32
0.0
 13
672.9506196235404
 23
578.4316641132336
 33
0.0
  0
POINT
  5
2E3D
330
1B56
100
AcDbEntity
  8
Defpoints
  6
Continuous
 62
     0
100
AcDbPoint
 10
657.9885912750621
 20
669.4316641132335
 30
0.0
  0
POINT
  5
2E3E
330
1B56
100
AcDbEntity
  8
Defpoints
  6
Continuous
 62
     0
100
AcDbPoint
 10
649.9885912750621
 20
578.4316641132336
 30
0.0
  0
POINT
  5
2E3F
330
1B56
100
AcDbEntity
  8
Defpoints
  6
Continuous
 62
     0
100
AcDbPoint
 10
672.9506196235404
 20
578.4316641132336
 30
0.0
  0
ENDBLK
  5
1B61
330
1B56
100
AcDbEntity
  8
0
100
AcDbBlockEnd
  0
BLOCK
  5
1B6C
330
1B62
100
AcDbEntity
  8
0
100
AcDbBlockBegin
  2
*D34
 70
     1
 10
0.0
 20
0.0
 30
0.0
  3
*D34
  1

  0
LINE
  5
2E2E
330
1B62
100
AcDbEntity
  8
Bemaßungen(DIN)
  6
Continuous
 62
     7
370
    25
100
AcDbLine
 10
657.9885912750621
 20
669.4316641132335
 30
0.0
 11
682.6844225068497
 21
669.4316641132335
 31
0.0
  0
LINE
  5
2E2F
330
1B62
100
AcDbEntity
  8
Bemaßungen(DIN)
  6
Continuous
 62
     7
370
    25
100
AcDbLine
 10
657.9885912750621
 20
489.4316641132335
 30
0.0
 11
682.6844225068497
 21
489.4316641132335
 31
0.0
  0
LINE
  5
2E30
330
1B62
100
AcDbEntity
  8
Bemaßungen(DIN)
  6
Continuous
 62
     7
370
    25
100
AcDbLine
 10
680.1844225068497
 20
666.9316641132335
 30
0.0
 11
680.1844225068497
 21
491.9316641132335
 31
0.0
  0
MTEXT
  5
2E31
330
1B62
100
AcDbEntity
  8
Bemaßungen(DIN)
  6
Continuous
 62
     7
370
    25
100
AcDbMText
 10
676.6209845805197
 20
576.2638605661667
 30
0.0
 40
3.0
 41
0.0
 71
     1
 72
     1
  1
\A1;180
  7
DIN-Stepp
 11
0.0000000000000001
 21
1.0
 31
0.0
 73
     1
 44
1.0
  0
SOLID
  5
2E32
330
1B62
100
AcDbEntity
  8
Bemaßungen(DIN)
  6
Continuous
 62
     7
100
AcDbTrace
 10
679.767755840183
 20
666.9316641132335
 30
0.0
 11
680.6010891735163
 21
666.9316641132335
 31
0.0
 12
680.1844225068497
 22
669.4316641132335
 32
0.0
 13
680.1844225068497
 23
669.4316641132335
 33
0.0
  0
SOLID
  5
2E33
330
1B62
100
AcDbEntity
  8
Bemaßungen(DIN)
  6
Continuous
 62
     7
100
AcDbTrace
 10
679.767755840183
 20
491.9316641132335
 30
0.0
 11
680.6010891735163
 21
491.9316641132335
 31
0.0
 12
680.1844225068497
 22
489.4316641132335
 32
0.0
 13
680.1844225068497
 23
489.4316641132335
 33
0.0
  0
POINT
  5
2E34
330
1B62
100
AcDbEntity
  8
Defpoints
  6
Continuous
 62
     0
100
AcDbPoint
 10
657.9885912750621
 20
669.4316641132335
 30
0.0
  0
POINT
  5
2E35
330
1B62
100
AcDbEntity
  8
Defpoints
  6
Continuous
 62
     0
100
AcDbPoint
 10
657.9885912750621
 20
489.4316641132335
 30
0.0
  0
POINT
  5
2E36
330
1B62
100
AcDbEntity
  8
Defpoints
  6
Continuous
 62
     0
100
AcDbPoint
 10
680.1844225068497
 20
489.4316641132335
 30
0.0
  0
ENDBLK
  5
1B6D
330
1B62
100
AcDbEntity
  8
0
100
AcDbBlockEnd
  0
BLOCK
  5
1B77
330
1B6E
100
AcDbEntity
  8
0
100
AcDbBlockBegin
  2
*D35
 70
     1
 10
0.0
 20
0.0
 30
0.0
  3
*D35
  1

  0
LINE
  5
2DFA
330
1B6E
100
AcDbEntity
  8
Bemaßungen(DIN)
  6
Continuous
 62
     7
370
    25
100
AcDbLine
 10
492.2209164024708
 20
501.8217181876647
 30
0.0
 11
502.7562661476538
 21
511.0416100388025
 31
0.0
  0
LINE
  5
2DFB
330
1B6E
100
AcDbEntity
  8
Bemaßungen(DIN)
  6
Continuous
 62
     7
370
    25
100
AcDbLine
 10
504.6375786021507
 20
512.6880192979342
 30
0.0
 11
517.9812997187131
 21
524.365625505806
 31
0.0
  0
LINE
  5
2DFC
330
1B6E
100
AcDbEntity
  8
Bemaßungen(DIN)
  6
Continuous
 62
     7
370
    25
100
AcDbLine
 10
517.9812997187131
 20
524.365625505806
 30
0.0
 11
526.0488304144838
 21
524.365625505806
 31
0.0
  0
SOLID
  5
2DFD
330
1B6E
100
AcDbEntity
  8
Bemaßungen(DIN)
  6
Continuous
 62
     7
100
AcDbTrace
 10
491.9465148592821
 20
502.1352702634141
 30
0.0
 11
492.4953179456593
 21
501.5081661119151
 31
0.0
 12
490.3396039479739
 22
500.1753089285329
 32
0.0
 13
490.3396039479739
 23
500.1753089285329
 33
0.0
  0
SOLID
  5
2DFE
330
1B6E
100
AcDbEntity
  8
Bemaßungen(DIN)
  6
Continuous
 62
     7
100
AcDbTrace
 10
502.4818646044651
 20
511.355162114552
 30
0.0
 11
503.0306676908423
 21
510.728057963053
 31
0.0
 12
504.6375786021507
 22
512.6880192979342
 32
0.0
 13
504.6375786021507
 23
512.6880192979342
 33
0.0
  0
MTEXT
  5
2DFF
330
1B6E
100
AcDbEntity
  8
Bemaßungen(DIN)
  6
Continuous
 62
     7
370
    25
100
AcDbMText
 10
518.481299718713
 20
528.0968669792031
 30
0.0
 40
3.0
 41
0.0
 71
     1
 72
     1
  1
\A1;\U+220519
  7
DIN-Stepp
 73
     1
 44
1.0
  0
POINT
  5
2E00
330
1B6E
100
AcDbEntity
  8
Defpoints
  6
Continuous
 62
     0
100
AcDbPoint
 10
504.6375786021507
 20
512.6880192979342
 30
0.0
  0
POINT
  5
2E01
330
1B6E
100
AcDbEntity
  8
Defpoints
  6
Continuous
 62
     0
100
AcDbPoint
 10
490.3396039479739
 20
500.1753089285329
 30
0.0
  0
ENDBLK
  5
1B78
330
1B6E
100
AcDbEntity
  8
0
100
AcDbBlockEnd
  0
BLOCK
  5
1B83
330
1B79
100
AcDbEntity
  8
0
100
AcDbBlockBegin
  2
*D36
 70
     1
 10
0.0
 20
0.0
 30
0.0
  3
*D36
  1

  0
LINE
  5
2E5A
330
1B79
100
AcDbEntity
  8
Bemaßungen(DIN)
  6
Continuous
 62
     7
370
    25
100
AcDbLine
 10
699.9514991886159
 20
656.1816641132335
 30
0.0
 11
699.9514991886159
 21
695.3377839668474
 31
0.0
  0
LINE
  5
2E5B
330
1B79
100
AcDbEntity
  8
Bemaßungen(DIN)
  6
Continuous
 62
     7
370
    25
100
AcDbLine
 10
771.9514991886158
 20
656.1816641132335
 30
0.0
 11
771.9514991886158
 21
695.3377839668474
 31
0.0
  0
LINE
  5
2E5C
330
1B79
100
AcDbEntity
  8
Bemaßungen(DIN)
  6
Continuous
 62
     7
370
    25
100
AcDbLine
 10
702.4514991886158
 20
692.8377839668473
 30
0.0
 11
769.4514991886157
 21
692.8377839668473
 31
0.0
  0
SOLID
  5
2E5D
330
1B79
100
AcDbEntity
  8
Bemaßungen(DIN)
  6
Continuous
 62
     7
100
AcDbTrace
 10
702.4514991886158
 20
693.254450633514
 30
0.0
 11
702.4514991886158
 21
692.4211173001808
 31
0.0
 12
699.9514991886159
 22
692.8377839668473
 32
0.0
 13
699.9514991886159
 23
692.8377839668473
 33
0.0
  0
SOLID
  5
2E5E
330
1B79
100
AcDbEntity
  8
Bemaßungen(DIN)
  6
Continuous
 62
     7
100
AcDbTrace
 10
769.4514991886157
 20
693.254450633514
 30
0.0
 11
769.4514991886157
 21
692.4211173001808
 31
0.0
 12
771.9514991886158
 22
692.8377839668473
 32
0.0
 13
771.9514991886158
 23
692.8377839668473
 33
0.0
  0
MTEXT
  5
2E5F
330
1B79
100
AcDbEntity
  8
Bemaßungen(DIN)
  6
Continuous
 62
     7
370
    25
100
AcDbMText
 10
734.3304214259965
 20
696.3500622751694
 30
0.0
 40
3.0
 41
0.0
 71
     1
 72
     1
  1
\A1;72
  7
DIN-Stepp
 73
     1
 44
1.0
  0
POINT
  5
2E60
330
1B79
100
AcDbEntity
  8
Defpoints
  6
Continuous
 62
     0
100
AcDbPoint
 10
699.9514991886159
 20
656.1816641132335
 30
0.0
  0
POINT
  5
2E61
330
1B79
100
AcDbEntity
  8
Defpoints
  6
Continuous
 62
     0
100
AcDbPoint
 10
771.9514991886158
 20
656.1816641132335
 30
0.0
  0
POINT
  5
2E62
330
1B79
100
AcDbEntity
  8
Defpoints
  6
Continuous
 62
     0
100
AcDbPoint
 10
771.9514991886158
 20
692.8377839668473
 30
0.0
  0
ENDBLK
  5
1B84
330
1B79
100
AcDbEntity
  8
0
100
AcDbBlockEnd
  0
BLOCK
  5
1B90
330
1B85
100
AcDbEntity
  8
0
100
AcDbBlockBegin
  2
*D37
 70
     1
 10
0.0
 20
0.0
 30
0.0
  3
*D37
  1

  0
LINE
  5
2E75
330
1B85
100
AcDbEntity
  8
Bemaßungen(DIN)
  6
Continuous
 62
     7
370
    25
100
AcDbLine
 10
689.6514991886158
 20
648.4316641132336
 30
0.0
 11
689.6514991886158
 21
705.9316641132335
 31
0.0
  0
LINE
  5
2E76
330
1B85
100
AcDbEntity
  8
Bemaßungen(DIN)
  6
Continuous
 62
     7
370
    25
100
AcDbLine
 10
697.1514991886158
 20
669.4316641132335
 30
0.0
 11
697.1514991886158
 21
705.9316641132335
 31
0.0
  0
LINE
  5
2E77
330
1B85
100
AcDbEntity
  8
Bemaßungen(DIN)
  6
Continuous
 62
     7
370
    25
100
AcDbLine
 10
694.6514991886158
 20
703.4316641132335
 30
0.0
 11
692.1514991886158
 21
703.4316641132335
 31
0.0
  0
LINE
  5
2E78
330
1B85
100
AcDbEntity
  8
Bemaßungen(DIN)
  6
Continuous
 62
     7
370
    25
100
AcDbLine
 10
689.6514991886158
 20
703.4316641132335
 30
0.0
 11
678.4949833684885
 21
703.4316641132335
 31
0.0
  0
SOLID
  5
2E79
330
1B85
100
AcDbEntity
  8
Bemaßungen(DIN)
  6
Continuous
 62
     7
100
AcDbTrace
 10
694.6514991886158
 20
703.8483307799001
 30
0.0
 11
694.6514991886158
 21
703.0149974465668
 31
0.0
 12
697.1514991886158
 22
703.4316641132335
 32
0.0
 13
697.1514991886158
 23
703.4316641132335
 33
0.0
  0
SOLID
  5
2E7A
330
1B85
100
AcDbEntity
  8
Bemaßungen(DIN)
  6
Continuous
 62
     7
100
AcDbTrace
 10
692.1514991886158
 20
703.8483307799001
 30
0.0
 11
692.1514991886158
 21
703.0149974465668
 31
0.0
 12
689.6514991886158
 22
703.4316641132335
 32
0.0
 13
689.6514991886158
 23
703.4316641132335
 33
0.0
  0
MTEXT
  5
2E7B
330
1B85
100
AcDbEntity
  8
Bemaßungen(DIN)
  6
Continuous
 62
     7
370
    25
100
AcDbMText
 10
678.9949833684886
 20
706.9828237312416
 30
0.0
 40
3.0
 41
0.0
 71
     1
 72
     1
  1
\A1;7.5
  7
DIN-Stepp
 73
     1
 44
1.0
  0
POINT
  5
2E7C
330
1B85
100
AcDbEntity
  8
Defpoints
  6
Continuous
 62
     0
100
AcDbPoint
 10
689.6514991886158
 20
648.4316641132336
 30
0.0
  0
POINT
  5
2E7D
330
1B85
100
AcDbEntity
  8
Defpoints
  6
Continuous
 62
     0
100
AcDbPoint
 10
697.1514991886158
 20
669.4316641132335
 30
0.0
  0
POINT
  5
2E7E
330
1B85
100
AcDbEntity
  8
Defpoints
  6
Continuous
 62
     0
100
AcDbPoint
 10
697.1514991886158
 20
703.4316641132335
 30
0.0
  0
ENDBLK
  5
1B91
330
1B85
100
AcDbEntity
  8
0
100
AcDbBlockEnd
  0
ENDSEC
  0
SECTION
  2
ENTITIES
  0
LINE
  5
418
330
23
100
AcDbEntity
  8
Sichtbare Kanten(DIN)
 62
     7
100
AcDbLine
 10
652.4885912750622
 20
560.3816641132335
 30
0.0
 11
652.4885912750622
 21
558.6816641132336
 31
0.0
  0
LINE
  5
419
330
23
100
AcDbEntity
  8
Sichtbare Kanten(DIN)
 62
     7
100
AcDbLine
 10
655.9885912750622
 20
564.2816641132335
 30
0.0
 11
652.4885912750622
 21
564.2816641132335
 31
0.0
  0
LINE
  5
41A
330
23
100
AcDbEntity
  8
Sichtbare Kanten(DIN)
 62
     7
100
AcDbLine
 10
652.4885912750622
 20
564.2816641132335
 30
0.0
 11
652.4885912750622
 21
562.5816641132335
 31
0.0
  0
LINE
  5
41B
330
23
100
AcDbEntity
  8
Sichtbare Kanten(DIN)
 62
     7
100
AcDbLine
 10
652.4885912750622
 20
562.5816641132335
 30
0.0
 11
654.9885912750621
 21
562.5816641132335
 31
0.0
  0
LINE
  5
41C
330
23
100
AcDbEntity
  8
Sichtbare Kanten(DIN)
 62
     7
100
AcDbLine
 10
654.9885912750621
 20
562.5816641132335
 30
0.0
 11
654.9885912750621
 21
560.3816641132335
 31
0.0
  0
LINE
  5
41D
330
23
100
AcDbEntity
  8
Sichtbare Kanten(DIN)
 62
     7
100
AcDbLine
 10
654.9885912750621
 20
560.3816641132335
 30
0.0
 11
652.4885912750622
 21
560.3816641132335
 31
0.0
  0
LINE
  5
41E
330
23
100
AcDbEntity
  8
Sichtbare Kanten(DIN)
 62
     7
100
AcDbLine
 10
454.4885912750621
 20
564.2816641132335
 30
0.0
 11
450.9885912750621
 21
564.2816641132335
 31
0.0
  0
LINE
  5
41F
330
23
100
AcDbEntity
  8
Sichtbare Kanten(DIN)
 62
     7
100
AcDbLine
 10
454.4885912750621
 20
558.6816641132336
 30
0.0
 11
454.4885912750621
 21
560.3816641132335
 31
0.0
  0
LINE
  5
420
330
23
100
AcDbEntity
  8
Sichtbare Kanten(DIN)
 62
     7
100
AcDbLine
 10
454.4885912750621
 20
560.3816641132335
 30
0.0
 11
451.9885912750622
 21
560.3816641132335
 31
0.0
  0
LINE
  5
421
330
23
100
AcDbEntity
  8
Sichtbare Kanten(DIN)
 62
     7
100
AcDbLine
 10
451.9885912750622
 20
560.3816641132335
 30
0.0
 11
451.9885912750622
 21
562.5816641132335
 31
0.0
  0
LINE
  5
422
330
23
100
AcDbEntity
  8
Sichtbare Kanten(DIN)
 62
     7
100
AcDbLine
 10
451.9885912750622
 20
562.5816641132335
 30
0.0
 11
454.4885912750621
 21
562.5816641132335
 31
0.0
  0
LINE
  5
423
330
23
100
AcDbEntity
  8
Sichtbare Kanten(DIN)
 62
     7
100
AcDbLine
 10
454.4885912750621
 20
562.5816641132335
 30
0.0
 11
454.4885912750621
 21
564.2816641132335
 31
0.0
  0
LINE
  5
424
330
23
100
AcDbEntity
  8
Sichtbare Kanten(DIN)
 62
     7
100
AcDbLine
 10
652.4885912750622
 20
558.6816641132336
 30
0.0
 11
645.788591275062
 21
558.6816641132336
 31
0.0
  0
LINE
  5
425
330
23
100
AcDbEntity
  8
Sichtbare Kanten(DIN)
 62
     7
100
AcDbLine
 10
645.788591275062
 20
656.1816641132335
 30
0.0
 11
645.788591275062
 21
558.6816641132336
 31
0.0
  0
LINE
  5
426
330
23
100
AcDbEntity
  8
Sichtbare Kanten(DIN)
 62
     7
100
AcDbLine
 10
450.9885912750621
 20
564.2816641132335
 30
0.0
 11
450.9885912750621
 21
656.1816641132335
 31
0.0
  0
LINE
  5
427
330
23
100
AcDbEntity
  8
Sichtbare Kanten(DIN)
 62
     7
100
AcDbLine
 10
461.1885912750621
 20
558.6816641132336
 30
0.0
 11
461.1885912750621
 21
656.1816641132335
 31
0.0
  0
LINE
  5
428
330
23
100
AcDbEntity
  8
Sichtbare Kanten(DIN)
 62
     7
100
AcDbLine
 10
645.788591275062
 20
558.6816641132336
 30
0.0
 11
645.788591275062
 21
550.5316641132335
 31
0.0
  0
LINE
  5
429
330
23
100
AcDbEntity
  8
Sichtbare Kanten(DIN)
 62
     7
100
AcDbLine
 10
461.1885912750621
 20
550.5316641132335
 30
0.0
 11
461.1885912750621
 21
558.6816641132336
 31
0.0
  0
LINE
  5
42A
330
23
100
AcDbEntity
  8
Sichtbare Kanten(DIN)
 62
     7
100
AcDbLine
 10
461.1885912750621
 20
558.6816641132336
 30
0.0
 11
454.4885912750621
 21
558.6816641132336
 31
0.0
  0
LINE
  5
42B
330
23
100
AcDbEntity
  8
Sichtbare Kanten(DIN)
 62
     7
100
AcDbLine
 10
450.9885912750621
 20
656.1816641132335
 30
0.0
 11
461.1885912750621
 21
656.1816641132335
 31
0.0
  0
LINE
  5
42C
330
23
100
AcDbEntity
  8
Sichtbare Kanten(DIN)
 62
     7
100
AcDbLine
 10
461.1885912750621
 20
656.1816641132335
 30
0.0
 11
461.188591275062
 21
665.4316641132336
 31
0.0
  0
LINE
  5
42D
330
23
100
AcDbEntity
  8
Sichtbare Kanten(DIN)
 62
     7
100
AcDbLine
 10
461.188591275062
 20
665.4316641132336
 30
0.0
 11
645.788591275062
 21
665.4316641132336
 31
0.0
  0
LINE
  5
42E
330
23
100
AcDbEntity
  8
Sichtbare Kanten(DIN)
 62
     7
100
AcDbLine
 10
645.788591275062
 20
665.4316641132336
 30
0.0
 11
645.788591275062
 21
656.1816641132335
 31
0.0
  0
LINE
  5
42F
330
23
100
AcDbEntity
  8
Sichtbare Kanten(DIN)
 62
     7
100
AcDbLine
 10
645.788591275062
 20
656.1816641132335
 30
0.0
 11
655.9885912750622
 21
656.1816641132335
 31
0.0
  0
LINE
  5
430
330
23
100
AcDbEntity
  8
Sichtbare Kanten(DIN)
 62
     7
100
AcDbLine
 10
655.9885912750622
 20
656.1816641132335
 30
0.0
 11
655.9885912750622
 21
564.2816641132335
 31
0.0
  0
CIRCLE
  5
431
330
23
100
AcDbEntity
  8
Sichtbare Kanten(DIN)
 62
     7
100
AcDbCircle
 10
649.9885912750621
 20
634.4316641132336
 30
0.0
 40
1.2295
  0
CIRCLE
  5
432
330
23
100
AcDbEntity
  8
Sichtbare Kanten(DIN)
 62
     7
100
AcDbCircle
 10
649.9885912750621
 20
578.4316641132336
 30
0.0
 40
1.2295
  0
CIRCLE
  5
433
330
23
100
AcDbEntity
  8
Sichtbare Kanten(DIN)
 62
     7
100
AcDbCircle
 10
456.9885912750621
 20
578.4316641132336
 30
0.0
 40
1.2295
  0
CIRCLE
  5
434
330
23
100
AcDbEntity
  8
Sichtbare Kanten(DIN)
 62
     7
100
AcDbCircle
 10
456.9885912750621
 20
634.4316641132336
 30
0.0
 40
1.2295
  0
CIRCLE
  5
435
330
23
100
AcDbEntity
  8
Sichtbare Kanten(DIN)
 62
     7
100
AcDbCircle
 10
614.9885912750622
 20
659.9316641132336
 30
0.0
 40
1.2295
  0
CIRCLE
  5
436
330
23
100
AcDbEntity
  8
Sichtbare Kanten(DIN)
 62
     7
100
AcDbCircle
 10
491.9885912750621
 20
659.9316641132336
 30
0.0
 40
1.2295
  0
LINE
  5
437
330
23
100
AcDbEntity
  8
Sichtbare Kanten(DIN)
 62
     7
100
AcDbLine
 10
649.2885912750621
 20
550.5316641132335
 30
0.0
 11
649.2885912750621
 21
547.9316641132336
 31
0.0
  0
LINE
  5
438
330
23
100
AcDbEntity
  8
Sichtbare Kanten(DIN)
 62
     7
100
AcDbLine
 10
645.788591275062
 20
550.5316641132335
 30
0.0
 11
649.2885912750621
 21
550.5316641132335
 31
0.0
  0
LINE
  5
439
330
23
100
AcDbEntity
  8
Sichtbare Kanten(DIN)
 62
     7
100
AcDbLine
 10
645.7885912750622
 20
550.0316641132335
 30
0.0
 11
645.788591275062
 21
550.5316641132335
 31
0.0
  0
LINE
  5
43A
330
23
100
AcDbEntity
  8
Sichtbare Kanten(DIN)
 62
     7
100
AcDbLine
 10
457.6885912750621
 20
550.5316641132335
 30
0.0
 11
461.1885912750621
 21
550.5316641132335
 31
0.0
  0
LINE
  5
43B
330
23
100
AcDbEntity
  8
Sichtbare Kanten(DIN)
 62
     7
100
AcDbLine
 10
457.6885912750621
 20
547.9316641132335
 30
0.0
 11
457.6885912750621
 21
550.5316641132335
 31
0.0
  0
LINE
  5
43C
330
23
100
AcDbEntity
  8
Sichtbare Kanten(DIN)
 62
     7
100
AcDbLine
 10
461.1885912750621
 20
550.5316641132335
 30
0.0
 11
461.1885912750621
 21
550.0316641132335
 31
0.0
  0
LINE
  5
43D
330
23
100
AcDbEntity
  8
Verdeckte Kanten(DIN)
 62
     7
 48
3.809293270111083
100
AcDbLine
 10
645.7885912750622
 20
548.0316641132335
 30
0.0
 11
645.7885912750622
 21
550.0316641132335
 31
0.0
  0
LINE
  5
43E
330
23
100
AcDbEntity
  8
Verdeckte Kanten(DIN)
 62
     7
 48
3.809293270111083
100
AcDbLine
 10
461.1885912750621
 20
550.0316641132335
 30
0.0
 11
461.1885912750621
 21
548.0316641132335
 31
0.0
  0
LINE
  5
43F
330
23
100
AcDbEntity
  8
Verdeckte Kanten(DIN)
 62
     7
 48
14.12675380706787
100
AcDbLine
 10
645.7885912750622
 20
529.4316641132336
 30
0.0
 11
645.7885912750622
 21
544.0316641132335
 31
0.0
  0
LINE
  5
440
330
23
100
AcDbEntity
  8
Verdeckte Kanten(DIN)
 62
     7
 48
14.12675380706787
100
AcDbLine
 10
461.1885912750619
 20
544.0316641132335
 30
0.0
 11
461.1885912750619
 21
529.4316641132336
 31
0.0
  0
LINE
  5
441
330
23
100
AcDbEntity
  8
Verdeckte Kanten(DIN)
 62
     7
 48
13.11333465576171
100
AcDbLine
 10
656.4885912750622
 20
520.4316641132336
 30
0.0
 11
450.4885912750621
 21
520.4316641132336
 31
0.0
  0
LINE
  5
442
330
23
100
AcDbEntity
  8
Verdeckte Kanten(DIN)
 62
     7
 48
13.13355541229248
100
AcDbLine
 10
461.1885912750619
 20
529.4316641132336
 30
0.0
 11
645.7885912750622
 21
529.4316641132336
 31
0.0
  0
LINE
  5
443
330
23
100
AcDbEntity
  8
Sichtbare Kanten(DIN)
 62
     7
100
AcDbLine
 10
645.7885912750622
 20
544.0316641132335
 30
0.0
 11
645.7885912750622
 21
545.4316641132336
 31
0.0
  0
LINE
  5
444
330
23
100
AcDbEntity
  8
Sichtbare Kanten(DIN)
 62
     7
100
AcDbLine
 10
461.1885912750619
 20
545.4316641132335
 30
0.0
 11
461.1885912750619
 21
544.0316641132335
 31
0.0
  0
ARC
  5
445
330
23
100
AcDbEntity
  8
Verdeckte Kanten(DIN)
 62
     7
 48
13.55226612091064
100
AcDbCircle
 10
467.9460286908417
 20
511.6316641132335
 30
0.0
 40
5.35
100
AcDbArc
 50
59.99999999999999
 51
239.9999999999999
  0
LINE
  5
446
330
23
100
AcDbEntity
  8
Verdeckte Kanten(DIN)
 62
     7
 48
12.38509941101074
100
AcDbLine
 10
465.2710286908416
 20
506.9984282029868
 30
0.0
 11
476.3561538592825
 21
500.5984282029867
 31
0.0
  0
ARC
  5
447
330
23
100
AcDbEntity
  8
Verdeckte Kanten(DIN)
 62
     7
 48
13.55226612091064
100
AcDbCircle
 10
479.0311538592825
 20
505.2316641132335
 30
0.0
 40
5.349999999999999
100
AcDbArc
 50
239.9999999999999
 51
59.99999999999994
  0
LINE
  5
448
330
23
100
AcDbEntity
  8
Verdeckte Kanten(DIN)
 62
     7
 48
12.38509941101074
100
AcDbLine
 10
481.7061538592825
 20
509.8649000234803
 30
0.0
 11
470.6210286908417
 21
516.2649000234803
 31
0.0
  0
LINE
  5
449
330
23
100
AcDbEntity
  8
Verdeckte Kanten(DIN)
 62
     7
 48
12.38509941101074
100
AcDbLine
 10
630.6210286908417
 20
500.5984282029867
 30
0.0
 11
641.7061538592825
 21
506.9984282029868
 31
0.0
  0
ARC
  5
44A
330
23
100
AcDbEntity
  8
Verdeckte Kanten(DIN)
 62
     7
 48
13.55226612091064
100
AcDbCircle
 10
639.0311538592825
 20
511.6316641132335
 30
0.0
 40
5.350000000000018
100
AcDbArc
 50
300.0000000000001
 51
120.0000000000001
  0
LINE
  5
44B
330
23
100
AcDbEntity
  8
Verdeckte Kanten(DIN)
 62
     7
 48
12.38509941101074
100
AcDbLine
 10
636.3561538592826
 20
516.2649000234803
 30
0.0
 11
625.2710286908417
 21
509.8649000234803
 31
0.0
  0
ARC
  5
44C
330
23
100
AcDbEntity
  8
Verdeckte Kanten(DIN)
 62
     7
 48
13.55226612091064
100
AcDbCircle
 10
627.9460286908418
 20
505.2316641132335
 30
0.0
 40
5.349999999999991
100
AcDbArc
 50
119.9999999999998
 51
299.9999999999999
  0
ARC
  5
44D
330
23
100
AcDbEntity
  8
Verdeckte Kanten(DIN)
 62
     7
 48
13.93223667144775
100
AcDbCircle
 10
467.9460286908417
 20
511.6316641132335
 30
0.0
 40
2.749999999999998
100
AcDbArc
 50
60.00000000000034
 51
240.0000000000003
  0
LINE
  5
44E
330
23
100
AcDbEntity
  8
Verdeckte Kanten(DIN)
 62
     7
 48
12.38509941101074
100
AcDbLine
 10
469.3210286908417
 20
514.0132339736408
 30
0.0
 11
480.4061538592825
 21
507.6132339736407
 31
0.0
  0
ARC
  5
44F
330
23
100
AcDbEntity
  8
Verdeckte Kanten(DIN)
 62
     7
 48
13.93223667144775
100
AcDbCircle
 10
479.0311538592825
 20
505.2316641132335
 30
0.0
 40
2.749999999999997
100
AcDbArc
 50
239.9999987925816
 51
59.99999999999994
  0
LINE
  5
450
330
23
100
AcDbEntity
  8
Verdeckte Kanten(DIN)
 62
     7
 48
12.38509941101074
100
AcDbLine
 10
477.6561538592825
 20
502.8500942528263
 30
0.0
 11
466.5710286908417
 21
509.2500942528263
 31
0.0
  0
ARC
  5
451
330
23
100
AcDbEntity
  8
Verdeckte Kanten(DIN)
 62
     7
 48
13.93223667144775
100
AcDbCircle
 10
639.0311538592825
 20
511.6316641132335
 30
0.0
 40
2.750000000000022
100
AcDbArc
 50
300.0000000000003
 51
120.0000000000003
  0
LINE
  5
452
330
23
100
AcDbEntity
  8
Verdeckte Kanten(DIN)
 62
     7
 48
12.38509941101074
100
AcDbLine
 10
640.4061538592825
 20
509.2500942528263
 30
0.0
 11
629.3210286908418
 21
502.8500942528263
 31
0.0
  0
ARC
  5
453
330
23
100
AcDbEntity
  8
Verdeckte Kanten(DIN)
 62
     7
 48
13.93223667144775
100
AcDbCircle
 10
627.9460286908418
 20
505.2316641132335
 30
0.0
 40
2.750000000000005
100
AcDbArc
 50
120.0000000000006
 51
300.0000000000007
  0
LINE
  5
454
330
23
100
AcDbEntity
  8
Verdeckte Kanten(DIN)
 62
     7
 48
12.38509941101074
100
AcDbLine
 10
626.5710286908418
 20
507.6132339736407
 30
0.0
 11
637.6561538592825
 21
514.0132339736408
 31
0.0
  0
CIRCLE
  5
455
330
23
100
AcDbEntity
  8
Sichtbare Kanten(DIN)
 62
     7
100
AcDbCircle
 10
455.4885912750621
 20
513.9316641132336
 30
0.0
 40
1.621
  0
CIRCLE
  5
456
330
23
100
AcDbEntity
  8
Sichtbare Kanten(DIN)
 62
     7
100
AcDbCircle
 10
651.4885912750621
 20
513.9316641132336
 30
0.0
 40
1.621
  0
ARC
  5
457
330
23
100
AcDbEntity
  8
Verdeckte Kanten(DIN)
 62
     7
 48
12.66566944122314
100
AcDbCircle
 10
455.4885912750621
 20
513.9316641132336
 30
0.0
 40
5.0
100
AcDbArc
 50
269.9999999999997
 51
89.99999999999976
  0
LINE
  5
458
330
23
100
AcDbEntity
  8
Verdeckte Kanten(DIN)
 62
     7
 48
12.09482383728027
100
AcDbLine
 10
450.4885912750621
 20
518.9316641132335
 30
0.0
 11
455.4885912750621
 21
518.9316641132335
 31
0.0
  0
LINE
  5
459
330
23
100
AcDbEntity
  8
Verdeckte Kanten(DIN)
 62
     7
 48
12.09482383728027
100
AcDbLine
 10
455.4885912750621
 20
508.9316641132334
 30
0.0
 11
450.4885912750621
 21
508.9316641132335
 31
0.0
  0
ARC
  5
45A
330
23
100
AcDbEntity
  8
Verdeckte Kanten(DIN)
 62
     7
 48
12.66566944122314
100
AcDbCircle
 10
651.4885912750621
 20
513.9316641132336
 30
0.0
 40
5.0
100
AcDbArc
 50
90.0
 51
270.0
  0
LINE
  5
45B
330
23
100
AcDbEntity
  8
Verdeckte Kanten(DIN)
 62
     7
 48
12.09482383728027
100
AcDbLine
 10
656.4885912750622
 20
508.9316641132335
 30
0.0
 11
651.4885912750621
 21
508.9316641132334
 31
0.0
  0
LINE
  5
45C
330
23
100
AcDbEntity
  8
Verdeckte Kanten(DIN)
 62
     7
 48
12.09482383728027
100
AcDbLine
 10
651.4885912750621
 20
518.9316641132335
 30
0.0
 11
656.4885912750622
 21
518.9316641132335
 31
0.0
  0
LINE
  5
45D
330
23
100
AcDbEntity
  8
Sichtbare Kanten(DIN)
 62
     7
100
AcDbLine
 10
656.4885912750622
 20
545.4316641132336
 30
0.0
 11
656.4885912750622
 21
544.0316641132335
 31
0.0
  0
LINE
  5
45E
330
23
100
AcDbEntity
  8
Sichtbare Kanten(DIN)
 62
     7
100
AcDbLine
 10
450.4885912750621
 20
544.0316641132335
 30
0.0
 11
450.4885912750621
 21
545.4316641132335
 31
0.0
  0
LINE
  5
45F
330
23
100
AcDbEntity
  8
Verdeckte Kanten(DIN)
 62
     7
 48
13.01148414611816
100
AcDbLine
 10
656.4885912750622
 20
544.0316641132335
 30
0.0
 11
656.4885912750622
 21
492.9316641132335
 31
0.0
  0
LINE
  5
460
330
23
100
AcDbEntity
  8
Verdeckte Kanten(DIN)
 62
     7
 48
13.01148414611816
100
AcDbLine
 10
450.4885912750621
 20
492.9316641132335
 30
0.0
 11
450.4885912750621
 21
544.0316641132335
 31
0.0
  0
LINE
  5
461
330
23
100
AcDbEntity
  8
Verdeckte Kanten(DIN)
 62
     7
 48
13.11333465576171
100
AcDbLine
 10
656.4885912750622
 20
492.9316641132335
 30
0.0
 11
450.4885912750621
 21
492.9316641132335
 31
0.0
  0
LINE
  5
462
330
23
100
AcDbEntity
  8
Sichtbare Kanten(DIN)
 62
     7
100
AcDbLine
 10
458.4885912750621
 20
547.9316641132335
 30
0.0
 11
449.4885912750621
 21
547.9316641132335
 31
0.0
  0
LINE
  5
463
330
23
100
AcDbEntity
  8
Sichtbare Kanten(DIN)
 62
     7
100
AcDbLine
 10
449.4885912750621
 20
547.9316641132335
 30
0.0
 11
449.488591275062
 21
666.9316641132336
 31
0.0
  0
LINE
  5
464
330
23
100
AcDbEntity
  8
Sichtbare Kanten(DIN)
 62
     7
100
AcDbLine
 10
449.488591275062
 20
666.9316641132336
 30
0.0
 11
657.4885912750621
 21
666.9316641132336
 31
0.0
  0
LINE
  5
465
330
23
100
AcDbEntity
  8
Sichtbare Kanten(DIN)
 62
     7
100
AcDbLine
 10
657.4885912750621
 20
666.9316641132336
 30
0.0
 11
657.4885912750621
 21
547.9316641132336
 31
0.0
  0
LINE
  5
466
330
23
100
AcDbEntity
  8
Sichtbare Kanten(DIN)
 62
     7
100
AcDbLine
 10
657.4885912750621
 20
547.9316641132336
 30
0.0
 11
648.4885912750621
 21
547.9316641132336
 31
0.0
  0
LINE
  5
467
330
23
100
AcDbEntity
  8
Sichtbare Kanten(DIN)
 62
     7
100
AcDbLine
 10
448.9885912750621
 20
545.4316641132335
 30
0.0
 11
461.1885912750621
 21
545.4316641132335
 31
0.0
  0
LINE
  5
468
330
23
100
AcDbEntity
  8
Sichtbare Kanten(DIN)
 62
     7
100
AcDbLine
 10
645.7885912750622
 20
545.4316641132336
 30
0.0
 11
657.9885912750621
 21
545.4316641132336
 31
0.0
  0
LINE
  5
469
330
23
100
AcDbEntity
  8
Sichtbare Kanten(DIN)
 62
     7
100
AcDbLine
 10
659.9885912750622
 20
547.4316641132336
 30
0.0
 11
659.9885912750622
 21
667.4316641132336
 31
0.0
  0
ARC
  5
46A
330
23
100
AcDbEntity
  8
Sichtbare Kanten(DIN)
 62
     7
100
AcDbCircle
 10
657.9885912750621
 20
667.4316641132336
 30
0.0
 40
1.999999999999992
100
AcDbArc
 50
0.0
 51
90.0
  0
ARC
  5
46B
330
23
100
AcDbEntity
  8
Sichtbare Kanten(DIN)
 62
     7
100
AcDbCircle
 10
657.988591275062
 20
547.4316641132336
 30
0.0
 40
2.000000000000055
100
AcDbArc
 50
270.000000000001
 51
0.0
  0
LINE
  5
46C
330
23
100
AcDbEntity
  8
Sichtbare Kanten(DIN)
 62
     7
100
AcDbLine
 10
657.9885912750621
 20
669.4316641132336
 30
0.0
 11
448.988591275062
 21
669.4316641132336
 31
0.0
  0
ARC
  5
46D
330
23
100
AcDbEntity
  8
Sichtbare Kanten(DIN)
 62
     7
100
AcDbCircle
 10
448.988591275062
 20
667.4316641132336
 30
0.0
 40
1.999999999999992
100
AcDbArc
 50
89.99999999999987
 51
180.0
  0
ARC
  5
46E
330
23
100
AcDbEntity
  8
Sichtbare Kanten(DIN)
 62
     7
100
AcDbCircle
 10
448.988591275062
 20
547.4316641132335
 30
0.0
 40
1.999999999999992
100
AcDbArc
 50
180.0
 51
270.0000000000006
  0
LINE
  5
46F
330
23
100
AcDbEntity
  8
Sichtbare Kanten(DIN)
 62
     7
100
AcDbLine
 10
446.9885912750621
 20
667.4316641132336
 30
0.0
 11
446.9885912750621
 21
547.4316641132335
 31
0.0
  0
LINE
  5
470
330
23
100
AcDbEntity
  8
Sichtbare Kanten(DIN)
 62
     7
100
AcDbLine
 10
551.9885912750622
 20
620.4316641132336
 30
0.0
 11
547.9885912750622
 21
620.4316641132336
 31
0.0
  0
ARC
  5
471
330
23
100
AcDbEntity
  8
Sichtbare Kanten(DIN)
 62
     7
100
AcDbCircle
 10
547.9885912750622
 20
622.4316641132336
 30
0.0
 40
1.999999999999992
100
AcDbArc
 50
180.0
 51
270.0
  0
LINE
  5
472
330
23
100
AcDbEntity
  8
Sichtbare Kanten(DIN)
 62
     7
100
AcDbLine
 10
545.9885912750621
 20
622.4316641132336
 30
0.0
 11
545.9885912750621
 21
641.4316641132336
 31
0.0
  0
ARC
  5
473
330
23
100
AcDbEntity
  8
Sichtbare Kanten(DIN)
 62
     7
100
AcDbCircle
 10
547.9885912750622
 20
641.4316641132336
 30
0.0
 40
1.999999999999984
100
AcDbArc
 50
90.0
 51
180.0
  0
LINE
  5
474
330
23
100
AcDbEntity
  8
Sichtbare Kanten(DIN)
 62
     7
100
AcDbLine
 10
547.9885912750622
 20
643.4316641132336
 30
0.0
 11
551.9885912750622
 21
643.4316641132336
 31
0.0
  0
LINE
  5
475
330
23
100
AcDbEntity
  8
Sichtbare Kanten(DIN)
 62
     7
100
AcDbLine
 10
554.9885912750619
 20
643.4316641132336
 30
0.0
 11
558.9885912750621
 21
643.4316641132336
 31
0.0
  0
ARC
  5
476
330
23
100
AcDbEntity
  8
Sichtbare Kanten(DIN)
 62
     7
100
AcDbCircle
 10
558.9885912750621
 20
641.4316641132336
 30
0.0
 40
1.999999999999992
100
AcDbArc
 50
0.0
 51
90.0
  0
LINE
  5
477
330
23
100
AcDbEntity
  8
Sichtbare Kanten(DIN)
 62
     7
100
AcDbLine
 10
560.9885912750621
 20
641.4316641132336
 30
0.0
 11
560.9885912750621
 21
622.4316641132336
 31
0.0
  0
ARC
  5
478
330
23
100
AcDbEntity
  8
Sichtbare Kanten(DIN)
 62
     7
100
AcDbCircle
 10
558.9885912750621
 20
622.4316641132336
 30
0.0
 40
1.999999999999992
100
AcDbArc
 50
270.0
 51
0.0
  0
LINE
  5
479
330
23
100
AcDbEntity
  8
Sichtbare Kanten(DIN)
 62
     7
100
AcDbLine
 10
558.9885912750621
 20
620.4316641132336
 30
0.0
 11
554.988591275062
 21
620.4316641132336
 31
0.0
  0
LINE
  5
47A
330
23
100
AcDbEntity
  8
Sichtbare Kanten(DIN)
 62
     7
100
AcDbLine
 10
551.9885912750622
 20
643.4316641132336
 30
0.0
 11
554.9885912750619
 21
643.4316641132336
 31
0.0
  0
LINE
  5
47B
330
23
100
AcDbEntity
  8
Sichtbare Kanten(DIN)
 62
     7
100
AcDbLine
 10
554.988591275062
 20
620.4316641132336
 30
0.0
 11
551.9885912750622
 21
620.4316641132336
 31
0.0
  0
LINE
  5
47C
330
23
100
AcDbEntity
  8
Verdeckte Kanten(DIN)
 62
     7
 48
13.61531543731689
100
AcDbLine
 10
551.9885912750619
 20
529.4316641132336
 30
0.0
 11
551.988591275062
 21
549.1316641132335
 31
0.0
  0
LINE
  5
47D
330
23
100
AcDbEntity
  8
Verdeckte Kanten(DIN)
 62
     7
 48
13.61531543731689
100
AcDbLine
 10
554.9885912750621
 20
549.1316641132335
 30
0.0
 11
554.9885912750621
 21
529.4316641132336
 31
0.0
  0
LINE
  5
47E
330
23
100
AcDbEntity
  8
Sichtbare Kanten(DIN)
 62
     7
100
AcDbLine
 10
551.988591275062
 20
549.1316641132335
 30
0.0
 11
551.9885912750622
 21
590.2235648696858
 31
0.0
  0
LINE
  5
47F
330
23
100
AcDbEntity
  8
Sichtbare Kanten(DIN)
 62
     7
100
AcDbLine
 10
554.988591275062
 20
590.2235648696858
 30
0.0
 11
554.9885912750621
 21
549.1316641132335
 31
0.0
  0
LINE
  5
480
330
23
100
AcDbEntity
  8
Sichtbare Kanten(DIN)
 62
     7
100
AcDbLine
 10
551.9885912750622
 20
643.4316641132336
 30
0.0
 11
551.9885912750622
 21
656.1816641132335
 31
0.0
  0
LINE
  5
481
330
23
100
AcDbEntity
  8
Sichtbare Kanten(DIN)
 62
     7
100
AcDbLine
 10
554.9885912750619
 20
656.1816641132335
 30
0.0
 11
554.9885912750619
 21
643.4316641132336
 31
0.0
  0
LINE
  5
482
330
23
100
AcDbEntity
  8
Sichtbare Kanten(DIN)
 62
     7
100
AcDbLine
 10
554.988591275062
 20
620.4316641132336
 30
0.0
 11
554.988591275062
 21
597.6397633567814
 31
0.0
  0
LINE
  5
483
330
23
100
AcDbEntity
  8
Sichtbare Kanten(DIN)
 62
     7
100
AcDbLine
 10
551.9885912750622
 20
597.6397633567814
 30
0.0
 11
551.9885912750622
 21
620.4316641132336
 31
0.0
  0
CIRCLE
  5
484
330
23
100
AcDbEntity
  8
Verdeckte Kanten(DIN)
 62
     7
 48
12.79899215698242
100
AcDbCircle
 10
525.4885912750621
 20
506.4316641132335
 30
0.0
 40
8.0
  0
CIRCLE
  5
485
330
23
100
AcDbEntity
  8
Verdeckte Kanten(DIN)
 62
     7
 48
13.12623882293701
100
AcDbCircle
 10
525.4885912750621
 20
506.4316641132335
 30
0.0
 40
9.5
  0
CIRCLE
  5
486
330
23
100
AcDbEntity
  8
Verdeckte Kanten(DIN)
 62
     7
 48
12.79899215698242
100
AcDbCircle
 10
581.4885912750622
 20
506.4316641132335
 30
0.0
 40
8.0
  0
CIRCLE
  5
487
330
23
100
AcDbEntity
  8
Verdeckte Kanten(DIN)
 62
     7
 48
13.12623882293701
100
AcDbCircle
 10
581.4885912750622
 20
506.4316641132335
 30
0.0
 40
9.5
  0
CIRCLE
  5
488
330
23
100
AcDbEntity
  8
Verdeckte Kanten(DIN)
 62
     7
 48
12.79899215698242
100
AcDbCircle
 10
609.4885912750621
 20
506.4316641132335
 30
0.0
 40
8.0
  0
CIRCLE
  5
489
330
23
100
AcDbEntity
  8
Verdeckte Kanten(DIN)
 62
     7
 48
13.12623882293701
100
AcDbCircle
 10
609.4885912750621
 20
506.4316641132335
 30
0.0
 40
9.5
  0
CIRCLE
  5
48A
330
23
100
AcDbEntity
  8
Verdeckte Kanten(DIN)
 62
     7
 48
12.79899215698242
100
AcDbCircle
 10
553.4885912750621
 20
506.4316641132335
 30
0.0
 40
8.0
  0
CIRCLE
  5
48B
330
23
100
AcDbEntity
  8
Verdeckte Kanten(DIN)
 62
     7
 48
13.12623882293701
100
AcDbCircle
 10
553.4885912750621
 20
506.4316641132335
 30
0.0
 40
9.5
  0
CIRCLE
  5
48C
330
23
100
AcDbEntity
  8
Verdeckte Kanten(DIN)
 62
     7
 48
12.79899215698242
100
AcDbCircle
 10
497.4885912750621
 20
506.4316641132335
 30
0.0
 40
8.0
  0
CIRCLE
  5
48D
330
23
100
AcDbEntity
  8
Verdeckte Kanten(DIN)
 62
     7
 48
13.12623882293701
100
AcDbCircle
 10
497.4885912750621
 20
506.4316641132335
 30
0.0
 40
9.5
  0
ARC
  5
48E
330
23
100
AcDbEntity
  8
Verdeckte Kanten(DIN)
 62
     7
 48
12.66566944122314
100
AcDbCircle
 10
553.4885912750621
 20
638.4316641132336
 30
0.0
 40
10.0
100
AcDbArc
 50
0.0
 51
180.0
  0
LINE
  5
48F
330
23
100
AcDbEntity
  8
Verdeckte Kanten(DIN)
 62
     7
 48
12.90114498138427
100
AcDbLine
 10
543.4885912750622
 20
638.4316641132336
 30
0.0
 11
543.4885912750622
 21
622.4316641132336
 31
0.0
  0
ARC
  5
490
330
23
100
AcDbEntity
  8
Verdeckte Kanten(DIN)
 62
     7
 48
12.66566944122314
100
AcDbCircle
 10
553.4885912750621
 20
622.4316641132336
 30
0.0
 40
10.0
100
AcDbArc
 50
180.0
 51
0.0
  0
LINE
  5
491
330
23
100
AcDbEntity
  8
Verdeckte Kanten(DIN)
 62
     7
 48
12.90114498138427
100
AcDbLine
 10
563.4885912750621
 20
622.4316641132336
 30
0.0
 11
563.4885912750621
 21
638.4316641132336
 31
0.0
  0
LINE
  5
492
330
23
100
AcDbEntity
  8
Verdeckte Kanten(DIN)
 62
     7
 48
13.51004695892334
100
AcDbLine
 10
575.4885912750621
 20
490.9816641132335
 30
0.0
 11
559.4885912750621
 21
490.9816641132335
 31
0.0
  0
LINE
  5
493
330
23
100
AcDbEntity
  8
Verdeckte Kanten(DIN)
 62
     7
 48
13.51004695892334
100
AcDbLine
 10
491.4885912750621
 20
490.9816641132335
 30
0.0
 11
475.4885912750621
 21
490.9816641132335
 31
0.0
  0
LINE
  5
494
330
23
100
AcDbEntity
  8
Verdeckte Kanten(DIN)
 62
     7
 48
13.51004695892334
100
AcDbLine
 10
603.4885912750621
 20
490.9816641132335
 30
0.0
 11
587.4885912750621
 21
490.9816641132335
 31
0.0
  0
LINE
  5
495
330
23
100
AcDbEntity
  8
Verdeckte Kanten(DIN)
 62
     7
 48
13.51004695892334
100
AcDbLine
 10
547.4885912750621
 20
490.9816641132335
 30
0.0
 11
531.4885912750622
 21
490.9816641132335
 31
0.0
  0
LINE
  5
496
330
23
100
AcDbEntity
  8
Verdeckte Kanten(DIN)
 62
     7
 48
13.51004695892334
100
AcDbLine
 10
519.4885912750621
 20
490.9816641132335
 30
0.0
 11
503.4885912750621
 21
490.9816641132335
 31
0.0
  0
LINE
  5
497
330
23
100
AcDbEntity
  8
Verdeckte Kanten(DIN)
 62
     7
 48
13.51004695892334
100
AcDbLine
 10
631.4885912750622
 20
490.9816641132335
 30
0.0
 11
615.4885912750621
 21
490.9816641132335
 31
0.0
  0
LINE
  5
498
330
23
100
AcDbEntity
  8
Verdeckte Kanten(DIN)
 62
     7
 48
13.12623882293701
100
AcDbLine
 10
585.9885912750621
 20
492.7316641132335
 30
0.0
 11
604.9885912750621
 21
492.7316641132335
 31
0.0
  0
LINE
  5
499
330
23
100
AcDbEntity
  8
Verdeckte Kanten(DIN)
 62
     7
 48
13.12623882293701
100
AcDbLine
 10
529.9885912750621
 20
492.7316641132335
 30
0.0
 11
548.9885912750621
 21
492.7316641132335
 31
0.0
  0
LINE
  5
49A
330
23
100
AcDbEntity
  8
Verdeckte Kanten(DIN)
 62
     7
 48
13.12623882293701
100
AcDbLine
 10
473.9885912750621
 20
492.7316641132335
 30
0.0
 11
492.9885912750621
 21
492.7316641132335
 31
0.0
  0
LINE
  5
49B
330
23
100
AcDbEntity
  8
Verdeckte Kanten(DIN)
 62
     7
 48
13.12623882293701
100
AcDbLine
 10
501.9885912750622
 20
492.7316641132335
 30
0.0
 11
520.9885912750621
 21
492.7316641132335
 31
0.0
  0
LINE
  5
49C
330
23
100
AcDbEntity
  8
Verdeckte Kanten(DIN)
 62
     7
 48
13.12623882293701
100
AcDbLine
 10
557.9885912750621
 20
492.7316641132335
 30
0.0
 11
576.9885912750622
 21
492.7316641132335
 31
0.0
  0
LINE
  5
49D
330
23
100
AcDbEntity
  8
Verdeckte Kanten(DIN)
 62
     7
 48
13.12623882293701
100
AcDbLine
 10
613.9885912750621
 20
492.7316641132335
 30
0.0
 11
632.9885912750621
 21
492.7316641132335
 31
0.0
  0
LINE
  5
49E
330
23
100
AcDbEntity
  8
Verdeckte Kanten(DIN)
 62
     7
 48
3.33311915397644
100
AcDbLine
 10
587.4885912750621
 20
490.9816641132335
 30
0.0
 11
587.4885912750621
 21
492.7316641132335
 31
0.0
  0
LINE
  5
49F
330
23
100
AcDbEntity
  8
Verdeckte Kanten(DIN)
 62
     7
 48
3.33311915397644
100
AcDbLine
 10
603.4885912750621
 20
490.9816641132335
 30
0.0
 11
603.4885912750621
 21
492.7316641132335
 31
0.0
  0
LINE
  5
4A0
330
23
100
AcDbEntity
  8
Verdeckte Kanten(DIN)
 62
     7
 48
6.285398960113525
100
AcDbLine
 10
585.9885912750621
 20
489.4316641132335
 30
0.0
 11
585.9885912750621
 21
492.7316641132335
 31
0.0
  0
LINE
  5
4A1
330
23
100
AcDbEntity
  8
Verdeckte Kanten(DIN)
 62
     7
 48
6.285398960113525
100
AcDbLine
 10
604.9885912750621
 20
489.4316641132335
 30
0.0
 11
604.9885912750621
 21
492.7316641132335
 31
0.0
  0
LINE
  5
4A2
330
23
100
AcDbEntity
  8
Verdeckte Kanten(DIN)
 62
     7
 48
3.33311915397644
100
AcDbLine
 10
531.4885912750622
 20
490.9816641132335
 30
0.0
 11
531.4885912750622
 21
492.7316641132335
 31
0.0
  0
LINE
  5
4A3
330
23
100
AcDbEntity
  8
Verdeckte Kanten(DIN)
 62
     7
 48
3.33311915397644
100
AcDbLine
 10
547.4885912750621
 20
490.9816641132335
 30
0.0
 11
547.4885912750621
 21
492.7316641132335
 31
0.0
  0
LINE
  5
4A4
330
23
100
AcDbEntity
  8
Verdeckte Kanten(DIN)
 62
     7
 48
6.285398960113525
100
AcDbLine
 10
529.9885912750621
 20
489.4316641132335
 30
0.0
 11
529.9885912750621
 21
492.7316641132335
 31
0.0
  0
LINE
  5
4A5
330
23
100
AcDbEntity
  8
Verdeckte Kanten(DIN)
 62
     7
 48
6.285398960113525
100
AcDbLine
 10
548.9885912750621
 20
489.4316641132335
 30
0.0
 11
548.9885912750621
 21
492.7316641132335
 31
0.0
  0
LINE
  5
4A6
330
23
100
AcDbEntity
  8
Verdeckte Kanten(DIN)
 62
     7
 48
3.33311915397644
100
AcDbLine
 10
475.4885912750621
 20
490.9816641132335
 30
0.0
 11
475.4885912750621
 21
492.7316641132335
 31
0.0
  0
LINE
  5
4A7
330
23
100
AcDbEntity
  8
Verdeckte Kanten(DIN)
 62
     7
 48
3.33311915397644
100
AcDbLine
 10
491.4885912750621
 20
490.9816641132335
 30
0.0
 11
491.4885912750621
 21
492.7316641132335
 31
0.0
  0
LINE
  5
4A8
330
23
100
AcDbEntity
  8
Verdeckte Kanten(DIN)
 62
     7
 48
6.285398960113525
100
AcDbLine
 10
473.9885912750621
 20
489.4316641132335
 30
0.0
 11
473.9885912750621
 21
492.7316641132335
 31
0.0
  0
LINE
  5
4A9
330
23
100
AcDbEntity
  8
Verdeckte Kanten(DIN)
 62
     7
 48
6.285398960113525
100
AcDbLine
 10
492.9885912750621
 20
489.4316641132335
 30
0.0
 11
492.9885912750621
 21
492.7316641132335
 31
0.0
  0
LINE
  5
4AA
330
23
100
AcDbEntity
  8
Verdeckte Kanten(DIN)
 62
     7
 48
3.33311915397644
100
AcDbLine
 10
503.4885912750621
 20
490.9816641132335
 30
0.0
 11
503.4885912750621
 21
492.7316641132335
 31
0.0
  0
LINE
  5
4AB
330
23
100
AcDbEntity
  8
Verdeckte Kanten(DIN)
 62
     7
 48
3.33311915397644
100
AcDbLine
 10
519.4885912750621
 20
490.9816641132335
 30
0.0
 11
519.4885912750621
 21
492.7316641132335
 31
0.0
  0
LINE
  5
4AC
330
23
100
AcDbEntity
  8
Verdeckte Kanten(DIN)
 62
     7
 48
6.285398960113525
100
AcDbLine
 10
501.9885912750621
 20
489.4316641132335
 30
0.0
 11
501.9885912750621
 21
492.7316641132335
 31
0.0
  0
LINE
  5
4AD
330
23
100
AcDbEntity
  8
Verdeckte Kanten(DIN)
 62
     7
 48
6.285398960113525
100
AcDbLine
 10
520.9885912750621
 20
489.4316641132335
 30
0.0
 11
520.9885912750621
 21
492.7316641132335
 31
0.0
  0
LINE
  5
4AE
330
23
100
AcDbEntity
  8
Verdeckte Kanten(DIN)
 62
     7
 48
3.33311915397644
100
AcDbLine
 10
559.4885912750621
 20
490.9816641132335
 30
0.0
 11
559.4885912750621
 21
492.7316641132335
 31
0.0
  0
LINE
  5
4AF
330
23
100
AcDbEntity
  8
Verdeckte Kanten(DIN)
 62
     7
 48
3.33311915397644
100
AcDbLine
 10
575.4885912750621
 20
490.9816641132335
 30
0.0
 11
575.4885912750621
 21
492.7316641132335
 31
0.0
  0
LINE
  5
4B0
330
23
100
AcDbEntity
  8
Verdeckte Kanten(DIN)
 62
     7
 48
6.285398960113525
100
AcDbLine
 10
557.9885912750621
 20
489.4316641132335
 30
0.0
 11
557.9885912750621
 21
492.7316641132335
 31
0.0
  0
LINE
  5
4B1
330
23
100
AcDbEntity
  8
Verdeckte Kanten(DIN)
 62
     7
 48
6.285398960113525
100
AcDbLine
 10
576.9885912750622
 20
489.4316641132335
 30
0.0
 11
576.9885912750622
 21
492.7316641132335
 31
0.0
  0
LINE
  5
4B2
330
23
100
AcDbEntity
  8
Verdeckte Kanten(DIN)
 62
     7
 48
3.33311915397644
100
AcDbLine
 10
615.4885912750621
 20
490.9816641132335
 30
0.0
 11
615.4885912750621
 21
492.7316641132335
 31
0.0
  0
LINE
  5
4B3
330
23
100
AcDbEntity
  8
Verdeckte Kanten(DIN)
 62
     7
 48
3.33311915397644
100
AcDbLine
 10
631.4885912750622
 20
490.9816641132335
 30
0.0
 11
631.4885912750622
 21
492.7316641132335
 31
0.0
  0
LINE
  5
4B4
330
23
100
AcDbEntity
  8
Verdeckte Kanten(DIN)
 62
     7
 48
6.285398960113525
100
AcDbLine
 10
613.9885912750621
 20
489.4316641132335
 30
0.0
 11
613.9885912750621
 21
492.7316641132335
 31
0.0
  0
LINE
  5
4B5
330
23
100
AcDbEntity
  8
Verdeckte Kanten(DIN)
 62
     7
 48
6.285398960113525
100
AcDbLine
 10
632.9885912750621
 20
489.4316641132335
 30
0.0
 11
632.9885912750621
 21
492.7316641132335
 31
0.0
  0
ARC
  5
4B6
330
23
100
AcDbEntity
  8
Sichtbare Kanten(DIN)
 62
     7
100
AcDbCircle
 10
553.4885912750621
 20
638.4316641132336
 30
0.0
 40
2.999999999999998
100
AcDbArc
 50
0.0
 51
180.0
  0
LINE
  5
4B7
330
23
100
AcDbEntity
  8
Sichtbare Kanten(DIN)
 62
     7
100
AcDbLine
 10
556.4885912750622
 20
638.4316641132336
 30
0.0
 11
556.4885912750622
 21
634.5870183308207
 31
0.0
  0
ARC
  5
4B8
330
23
100
AcDbEntity
  8
Sichtbare Kanten(DIN)
 62
     7
100
AcDbCircle
 10
553.4885912750621
 20
629.6816641132336
 30
0.0
 40
5.750000000000002
100
AcDbArc
 50
121.4489813893796
 51
58.55101861062037
  0
LINE
  5
4B9
330
23
100
AcDbEntity
  8
Sichtbare Kanten(DIN)
 62
     7
100
AcDbLine
 10
550.4885912750621
 20
634.5870183308207
 30
0.0
 11
550.4885912750621
 21
638.4316641132336
 31
0.0
  0
LINE
  5
4BA
330
23
100
AcDbEntity
  8
Sichtbare Kanten(DIN)
 62
     7
100
AcDbLine
 10
659.9885912750622
 20
542.0316641132335
 30
0.0
 11
659.9885912750622
 21
547.4316641132336
 31
0.0
  0
LINE
  5
4BB
330
23
100
AcDbEntity
  8
Sichtbare Kanten(DIN)
 62
     7
100
AcDbLine
 10
446.9885912750621
 20
547.4316641132335
 30
0.0
 11
446.9885912750621
 21
542.0316641132335
 31
0.0
  0
CIRCLE
  5
4BC
330
23
100
AcDbEntity
  8
Sichtbare Kanten(DIN)
 62
     7
100
AcDbCircle
 10
553.4885912750621
 20
593.9316641132336
 30
0.0
 40
4.0
  0
CIRCLE
  5
4BD
330
23
100
AcDbEntity
  8
Sichtbare Kanten(DIN)
 62
     7
100
AcDbCircle
 10
553.4885912750621
 20
593.9316641132336
 30
0.0
 40
1.2295
  0
CIRCLE
  5
4BE
330
23
100
AcDbEntity
  8
Sichtbare Kanten(DIN)
 62
     7
100
AcDbCircle
 10
456.4885912750622
 20
554.9316641132334
 30
0.0
 40
1.2295
  0
CIRCLE
  5
4BF
330
23
100
AcDbEntity
  8
Sichtbare Kanten(DIN)
 62
     7
100
AcDbCircle
 10
456.4885912750621
 20
659.9316641132335
 30
0.0
 40
1.2295
  0
CIRCLE
  5
4C0
330
23
100
AcDbEntity
  8
Sichtbare Kanten(DIN)
 62
     7
100
AcDbCircle
 10
650.4885912750621
 20
659.9316641132336
 30
0.0
 40
1.2295
  0
CIRCLE
  5
4C1
330
23
100
AcDbEntity
  8
Sichtbare Kanten(DIN)
 62
     7
100
AcDbCircle
 10
650.4885912750621
 20
554.9316641132336
 30
0.0
 40
1.2295
  0
LINE
  5
4C2
330
23
100
AcDbEntity
  8
Sichtbare Kanten(DIN)
 62
     7
100
AcDbLine
 10
461.1885912750621
 20
656.1816641132335
 30
0.0
 11
645.788591275062
 21
656.1816641132335
 31
0.0
  0
LINE
  5
4C3
330
23
100
AcDbEntity
  8
Verdeckte Kanten(DIN)
 62
     7
 48
12.90596199035644
100
AcDbLine
 10
654.5385912750621
 20
538.5816641132334
 30
0.0
 11
654.5385912750621
 21
517.2403647645467
 31
0.0
  0
LINE
  5
4C4
330
23
100
AcDbEntity
  8
Verdeckte Kanten(DIN)
 62
     7
 48
12.69254875183105
100
AcDbLine
 10
654.5385912750621
 20
510.6229634619204
 30
0.0
 11
654.5385912750621
 21
494.8816641132335
 31
0.0
  0
LINE
  5
4C5
330
23
100
AcDbEntity
  8
Verdeckte Kanten(DIN)
 62
     7
 48
13.01340103149414
100
AcDbLine
 10
452.4385912750621
 20
517.0627042629242
 30
0.0
 11
452.4385912750621
 21
538.5816641132334
 31
0.0
  0
LINE
  5
4C6
330
23
100
AcDbEntity
  8
Verdeckte Kanten(DIN)
 62
     7
 48
13.03660678863525
100
AcDbLine
 10
654.5385912750621
 20
494.8816641132335
 30
0.0
 11
452.4385912750621
 21
494.8816641132335
 31
0.0
  0
LINE
  5
4C7
330
23
100
AcDbEntity
  8
Verdeckte Kanten(DIN)
 62
     7
 48
13.03660678863525
100
AcDbLine
 10
452.4385912750621
 20
538.5816641132334
 30
0.0
 11
654.5385912750621
 21
538.5816641132334
 31
0.0
  0
LINE
  5
4C8
330
23
100
AcDbEntity
  8
Verdeckte Kanten(DIN)
 62
     7
 48
12.83580017089843
100
AcDbLine
 10
452.4385912750621
 20
494.8816641132335
 30
0.0
 11
452.4385912750621
 21
510.8006239635428
 31
0.0
  0
LINE
  5
4C9
330
23
100
AcDbEntity
  8
Verdeckte Kanten(DIN)
 62
     7
 48
12.73988056182861
100
AcDbLine
 10
656.3885912750621
 20
493.0316641132335
 30
0.0
 11
656.3885912750621
 21
540.4316641132335
 31
0.0
  0
LINE
  5
4CA
330
23
100
AcDbEntity
  8
Verdeckte Kanten(DIN)
 62
     7
 48
13.10060310363769
100
AcDbLine
 10
656.3885912750621
 20
540.4316641132335
 30
0.0
 11
450.5885912750621
 21
540.4316641132335
 31
0.0
  0
LINE
  5
4CB
330
23
100
AcDbEntity
  8
Verdeckte Kanten(DIN)
 62
     7
 48
12.73988056182861
100
AcDbLine
 10
450.5885912750621
 20
540.4316641132335
 30
0.0
 11
450.5885912750621
 21
493.0316641132335
 31
0.0
  0
LINE
  5
4CC
330
23
100
AcDbEntity
  8
Verdeckte Kanten(DIN)
 62
     7
 48
13.10060310363769
100
AcDbLine
 10
450.5885912750621
 20
493.0316641132335
 30
0.0
 11
656.3885912750621
 21
493.0316641132335
 31
0.0
  0
CIRCLE
  5
4CD
330
23
100
AcDbEntity
  8
Sichtbare Kanten(DIN)
 62
     7
100
AcDbCircle
 10
455.4885912750621
 20
513.9316641132336
 30
0.0
 40
1.7
  0
CIRCLE
  5
4CE
330
23
100
AcDbEntity
  8
Sichtbare Kanten(DIN)
 62
     7
100
AcDbCircle
 10
651.4885912750621
 20
513.9316641132336
 30
0.0
 40
1.7
  0
ARC
  5
4CF
330
23
100
AcDbEntity
  8
Verdeckte Kanten(DIN)
 62
     7
 48
12.38714790344238
100
AcDbCircle
 10
455.4885912750621
 20
513.9316641132336
 30
0.0
 40
4.371031047587655
100
AcDbArc
 50
225.7511668592616
 51
134.2488331407382
  0
ARC
  5
4D0
330
23
100
AcDbEntity
  8
Verdeckte Kanten(DIN)
 62
     7
 48
12.60268020629882
100
AcDbCircle
 10
651.4885912750621
 20
513.9316641132336
 30
0.0
 40
4.499999999999992
100
AcDbArc
 50
47.32976612874232
 51
312.6702338712576
  0
CIRCLE
  5
4D1
330
23
100
AcDbEntity
  8
Sichtbare Kanten(DIN)
 62
     7
100
AcDbCircle
 10
455.4885912750621
 20
513.9316641132336
 30
0.0
 40
3.75
  0
CIRCLE
  5
4D2
330
23
100
AcDbEntity
  8
Sichtbare Kanten(DIN)
 62
     7
100
AcDbCircle
 10
651.4885912750621
 20
513.9316641132336
 30
0.0
 40
3.75
  0
LINE
  5
4D3
330
23
100
AcDbEntity
  8
Sichtbare Kanten(DIN)
 62
     7
100
AcDbLine
 10
657.9885912750621
 20
544.0316641132335
 30
0.0
 11
639.4885912750622
 21
544.0316641132335
 31
0.0
  0
LINE
  5
4D4
330
23
100
AcDbEntity
  8
Sichtbare Kanten(DIN)
 62
     7
100
AcDbLine
 10
467.4885912750621
 20
544.0316641132335
 30
0.0
 11
448.9885912750621
 21
544.0316641132335
 31
0.0
  0
LINE
  5
4D5
330
23
100
AcDbEntity
  8
Sichtbare Kanten(DIN)
 62
     7
100
AcDbLine
 10
659.9885912750622
 20
491.4316641132336
 30
0.0
 11
659.9885912750622
 21
542.0316641132335
 31
0.0
  0
LINE
  5
4D6
330
23
100
AcDbEntity
  8
Sichtbare Kanten(DIN)
 62
     7
100
AcDbLine
 10
448.9885912750621
 20
489.4316641132335
 30
0.0
 11
657.9885912750621
 21
489.4316641132335
 31
0.0
  0
ARC
  5
4D7
330
23
100
AcDbEntity
  8
Sichtbare Kanten(DIN)
 62
     7
100
AcDbCircle
 10
657.9885912750621
 20
491.4316641132336
 30
0.0
 40
2.00000000000001
100
AcDbArc
 50
270.0
 51
0.0
  0
LINE
  5
4D8
330
23
100
AcDbEntity
  8
Sichtbare Kanten(DIN)
 62
     7
100
AcDbLine
 10
446.9885912750621
 20
542.0316641132335
 30
0.0
 11
446.9885912750621
 21
491.4316641132336
 31
0.0
  0
ARC
  5
4D9
330
23
100
AcDbEntity
  8
Sichtbare Kanten(DIN)
 62
     7
100
AcDbCircle
 10
448.9885912750621
 20
491.4316641132335
 30
0.0
 40
1.999999999999975
100
AcDbArc
 50
180.0
 51
270.0000000000005
  0
ARC
  5
4DA
330
23
100
AcDbEntity
  8
Sichtbare Kanten(DIN)
 62
     7
100
AcDbCircle
 10
657.9885912750621
 20
542.0316641132335
 30
0.0
 40
1.999999999999992
100
AcDbArc
 50
0.0
 51
90.0
  0
ARC
  5
4DB
330
23
100
AcDbEntity
  8
Sichtbare Kanten(DIN)
 62
     7
100
AcDbCircle
 10
448.9885912750621
 20
542.0316641132335
 30
0.0
 40
1.999999999999992
100
AcDbArc
 50
90.0
 51
180.0
  0
LINE
  5
4DC
330
23
100
AcDbEntity
  8
Verdeckte Kanten(DIN)
 62
     7
 48
13.00193500518799
100
AcDbLine
 10
639.4885912750622
 20
544.0316641132335
 30
0.0
 11
467.4885912750621
 21
544.0316641132335
 31
0.0
  0
LINE
  5
4DD
330
23
100
AcDbEntity
  8
Sichtbare Kanten(DIN)
 62
     7
100
AcDbLine
 10
645.788591275062
 20
548.0316641132335
 30
0.0
 11
461.188591275062
 21
548.0316641132335
 31
0.0
  0
LINE
  5
4DE
330
23
100
AcDbEntity
  8
Sichtbare Kanten(DIN)
 62
     7
100
AcDbLine
 10
461.188591275062
 20
548.0316641132335
 30
0.0
 11
461.1885912750621
 21
545.9316641132336
 31
0.0
  0
LINE
  5
4DF
330
23
100
AcDbEntity
  8
Sichtbare Kanten(DIN)
 62
     7
100
AcDbLine
 10
645.788591275062
 20
545.9316641132336
 30
0.0
 11
645.788591275062
 21
548.0316641132335
 31
0.0
  0
LINE
  5
4E0
330
23
100
AcDbEntity
  8
Sichtbare Kanten(DIN)
 62
     7
100
AcDbLine
 10
461.488591275062
 20
549.1316641132335
 30
0.0
 11
645.4885912750621
 21
549.1316641132335
 31
0.0
  0
LINE
  5
4E1
330
23
100
AcDbEntity
  8
Sichtbare Kanten(DIN)
 62
     7
100
AcDbLine
 10
458.488591275062
 20
550.0316641132335
 30
0.0
 11
461.488591275062
 21
550.0316641132335
 31
0.0
  0
LINE
  5
4E2
330
23
100
AcDbEntity
  8
Sichtbare Kanten(DIN)
 62
     7
100
AcDbLine
 10
458.488591275062
 20
547.9316641132335
 30
0.0
 11
458.488591275062
 21
550.0316641132335
 31
0.0
  0
LINE
  5
4E3
330
23
100
AcDbEntity
  8
Sichtbare Kanten(DIN)
 62
     7
100
AcDbLine
 10
461.188591275062
 20
547.9316641132335
 30
0.0
 11
458.4885912750621
 21
547.9316641132335
 31
0.0
  0
LINE
  5
4E4
330
23
100
AcDbEntity
  8
Sichtbare Kanten(DIN)
 62
     7
100
AcDbLine
 10
648.4885912750621
 20
547.9316641132336
 30
0.0
 11
645.788591275062
 21
547.9316641132336
 31
0.0
  0
LINE
  5
4E5
330
23
100
AcDbEntity
  8
Sichtbare Kanten(DIN)
 62
     7
100
AcDbLine
 10
648.4885912750621
 20
550.0316641132335
 30
0.0
 11
648.4885912750621
 21
547.9316641132336
 31
0.0
  0
LINE
  5
4E6
330
23
100
AcDbEntity
  8
Sichtbare Kanten(DIN)
 62
     7
100
AcDbLine
 10
645.4885912750621
 20
550.0316641132335
 30
0.0
 11
648.4885912750621
 21
550.0316641132335
 31
0.0
  0
LINE
  5
4E7
330
23
100
AcDbEntity
  8
Sichtbare Kanten(DIN)
 62
     7
100
AcDbLine
 10
645.4885912750621
 20
549.1316641132335
 30
0.0
 11
645.4885912750621
 21
550.0316641132335
 31
0.0
  0
LINE
  5
4E8
330
23
100
AcDbEntity
  8
Sichtbare Kanten(DIN)
 62
     7
100
AcDbLine
 10
461.488591275062
 20
550.0316641132335
 30
0.0
 11
461.488591275062
 21
549.1316641132335
 31
0.0
  0
LINE
  5
4E9
330
23
100
AcDbEntity
  8
Sichtbare Kanten(DIN)
 62
     7
100
AcDbLine
 10
461.1885912750621
 20
545.4316641132335
 30
0.0
 11
461.1885912750621
 21
545.9316641132336
 31
0.0
  0
LINE
  5
4EA
330
23
100
AcDbEntity
  8
Sichtbare Kanten(DIN)
 62
     7
100
AcDbLine
 10
461.188591275062
 20
545.4316641132335
 30
0.0
 11
645.788591275062
 21
545.4316641132336
 31
0.0
  0
LINE
  5
4EB
330
23
100
AcDbEntity
  8
Sichtbare Kanten(DIN)
 62
     7
100
AcDbLine
 10
645.788591275062
 20
545.9316641132336
 30
0.0
 11
645.788591275062
 21
545.4316641132336
 31
0.0
  0
LINE
  5
4EC
330
23
100
AcDbEntity
  8
Sichtbare Kanten(DIN)
 62
     7
100
AcDbLine
 10
467.4885912750621
 20
545.4316641132335
 30
0.0
 11
467.4885912750621
 21
543.8316641132335
 31
0.0
  0
LINE
  5
4ED
330
23
100
AcDbEntity
  8
Sichtbare Kanten(DIN)
 62
     7
100
AcDbLine
 10
467.4885912750621
 20
543.8316641132335
 30
0.0
 11
639.4885912750622
 21
543.8316641132336
 31
0.0
  0
LINE
  5
4EE
330
23
100
AcDbEntity
  8
Sichtbare Kanten(DIN)
 62
     7
100
AcDbLine
 10
639.4885912750622
 20
545.4316641132336
 30
0.0
 11
639.4885912750622
 21
543.8316641132336
 31
0.0
  0
LINE
  5
4EF
330
23
100
AcDbEntity
  8
Mittelpunktmarkierung(DIN)
 62
     7
 48
3.968297481536865
100
AcDbLine
 10
456.4885912750621
 20
659.9316641132336
 30
0.0
 11
460.2180912750621
 21
659.9316641132336
 31
0.0
  0
LINE
  5
4F0
330
23
100
AcDbEntity
  8
Mittelpunktmarkierung(DIN)
 62
     7
 48
3.968297481536865
100
AcDbLine
 10
456.4885912750621
 20
659.9316641132336
 30
0.0
 11
452.7590912750621
 21
659.9316641132336
 31
0.0
  0
LINE
  5
4F1
330
23
100
AcDbEntity
  8
Mittelpunktmarkierung(DIN)
 62
     7
 48
3.968297481536865
100
AcDbLine
 10
456.4885912750621
 20
659.9316641132336
 30
0.0
 11
456.4885912750621
 21
663.6611641132335
 31
0.0
  0
LINE
  5
4F2
330
23
100
AcDbEntity
  8
Mittelpunktmarkierung(DIN)
 62
     7
 48
3.968297481536865
100
AcDbLine
 10
456.4885912750621
 20
659.9316641132336
 30
0.0
 11
456.4885912750621
 21
656.2021641132336
 31
0.0
  0
LINE
  5
4F3
330
23
100
AcDbEntity
  8
Mittelpunktmarkierung(DIN)
 62
     7
 48
3.968297481536865
100
AcDbLine
 10
491.9885912750621
 20
659.9316641132336
 30
0.0
 11
495.7180912750621
 21
659.9316641132336
 31
0.0
  0
LINE
  5
4F4
330
23
100
AcDbEntity
  8
Mittelpunktmarkierung(DIN)
 62
     7
 48
3.968297481536865
100
AcDbLine
 10
491.9885912750621
 20
659.9316641132336
 30
0.0
 11
488.2590912750621
 21
659.9316641132336
 31
0.0
  0
LINE
  5
4F5
330
23
100
AcDbEntity
  8
Mittelpunktmarkierung(DIN)
 62
     7
 48
3.968297481536865
100
AcDbLine
 10
491.9885912750621
 20
659.9316641132336
 30
0.0
 11
491.9885912750621
 21
663.6611641132335
 31
0.0
  0
LINE
  5
4F6
330
23
100
AcDbEntity
  8
Mittelpunktmarkierung(DIN)
 62
     7
 48
3.968297481536865
100
AcDbLine
 10
491.9885912750621
 20
659.9316641132336
 30
0.0
 11
491.9885912750621
 21
656.2021641132336
 31
0.0
  0
LINE
  5
4F7
330
23
100
AcDbEntity
  8
Mittelpunktmarkierung(DIN)
 62
     7
 48
3.968297481536865
100
AcDbLine
 10
614.9885912750622
 20
659.9316641132336
 30
0.0
 11
618.718091275062
 21
659.9316641132336
 31
0.0
  0
LINE
  5
4F8
330
23
100
AcDbEntity
  8
Mittelpunktmarkierung(DIN)
 62
     7
 48
3.968297481536865
100
AcDbLine
 10
614.9885912750622
 20
659.9316641132336
 30
0.0
 11
611.2590912750621
 21
659.9316641132336
 31
0.0
  0
LINE
  5
4F9
330
23
100
AcDbEntity
  8
Mittelpunktmarkierung(DIN)
 62
     7
 48
3.968297481536865
100
AcDbLine
 10
614.9885912750622
 20
659.9316641132336
 30
0.0
 11
614.9885912750622
 21
663.6611641132336
 31
0.0
  0
LINE
  5
4FA
330
23
100
AcDbEntity
  8
Mittelpunktmarkierung(DIN)
 62
     7
 48
3.968297481536865
100
AcDbLine
 10
614.9885912750622
 20
659.9316641132336
 30
0.0
 11
614.9885912750622
 21
656.2021641132337
 31
0.0
  0
LINE
  5
4FB
330
23
100
AcDbEntity
  8
Mittelpunktmarkierung(DIN)
 62
     7
 48
3.968297481536865
100
AcDbLine
 10
650.4885912750621
 20
659.9316641132336
 30
0.0
 11
654.218091275062
 21
659.9316641132336
 31
0.0
  0
LINE
  5
4FC
330
23
100
AcDbEntity
  8
Mittelpunktmarkierung(DIN)
 62
     7
 48
3.968297481536865
100
AcDbLine
 10
650.4885912750621
 20
659.9316641132336
 30
0.0
 11
646.7590912750621
 21
659.9316641132336
 31
0.0
  0
LINE
  5
4FD
330
23
100
AcDbEntity
  8
Mittelpunktmarkierung(DIN)
 62
     7
 48
3.968297481536865
100
AcDbLine
 10
650.4885912750621
 20
659.9316641132336
 30
0.0
 11
650.4885912750621
 21
663.6611641132335
 31
0.0
  0
LINE
  5
4FE
330
23
100
AcDbEntity
  8
Mittelpunktmarkierung(DIN)
 62
     7
 48
3.968297481536865
100
AcDbLine
 10
650.4885912750621
 20
659.9316641132336
 30
0.0
 11
650.4885912750621
 21
656.2021641132336
 31
0.0
  0
LINE
  5
4FF
330
23
100
AcDbEntity
  8
Mittelpunktmarkierung(DIN)
 62
     7
 48
3.968297481536865
100
AcDbLine
 10
649.9885912750621
 20
634.4316641132336
 30
0.0
 11
653.7180912750621
 21
634.4316641132336
 31
0.0
  0
LINE
  5
500
330
23
100
AcDbEntity
  8
Mittelpunktmarkierung(DIN)
 62
     7
 48
3.968297481536865
100
AcDbLine
 10
649.9885912750621
 20
634.4316641132336
 30
0.0
 11
646.2590912750621
 21
634.4316641132336
 31
0.0
  0
LINE
  5
501
330
23
100
AcDbEntity
  8
Mittelpunktmarkierung(DIN)
 62
     7
 48
3.968297481536865
100
AcDbLine
 10
649.9885912750621
 20
634.4316641132336
 30
0.0
 11
649.9885912750621
 21
638.1611641132336
 31
0.0
  0
LINE
  5
502
330
23
100
AcDbEntity
  8
Mittelpunktmarkierung(DIN)
 62
     7
 48
3.968297481536865
100
AcDbLine
 10
649.9885912750621
 20
634.4316641132336
 30
0.0
 11
649.9885912750621
 21
630.7021641132337
 31
0.0
  0
LINE
  5
503
330
23
100
AcDbEntity
  8
Mittelpunktmarkierung(DIN)
 62
     7
 48
3.968297481536865
100
AcDbLine
 10
456.9885912750621
 20
634.4316641132336
 30
0.0
 11
460.7180912750621
 21
634.4316641132336
 31
0.0
  0
LINE
  5
504
330
23
100
AcDbEntity
  8
Mittelpunktmarkierung(DIN)
 62
     7
 48
3.968297481536865
100
AcDbLine
 10
456.9885912750621
 20
634.4316641132336
 30
0.0
 11
453.2590912750621
 21
634.4316641132336
 31
0.0
  0
LINE
  5
505
330
23
100
AcDbEntity
  8
Mittelpunktmarkierung(DIN)
 62
     7
 48
3.968297481536865
100
AcDbLine
 10
456.9885912750621
 20
634.4316641132336
 30
0.0
 11
456.9885912750621
 21
638.1611641132336
 31
0.0
  0
LINE
  5
506
330
23
100
AcDbEntity
  8
Mittelpunktmarkierung(DIN)
 62
     7
 48
3.968297481536865
100
AcDbLine
 10
456.9885912750621
 20
634.4316641132336
 30
0.0
 11
456.9885912750621
 21
630.7021641132336
 31
0.0
  0
LINE
  5
507
330
23
100
AcDbEntity
  8
Mittelpunktmarkierung(DIN)
 62
     7
 48
3.968297481536865
100
AcDbLine
 10
456.9885912750621
 20
578.4316641132336
 30
0.0
 11
460.7180912750621
 21
578.4316641132336
 31
0.0
  0
LINE
  5
508
330
23
100
AcDbEntity
  8
Mittelpunktmarkierung(DIN)
 62
     7
 48
3.968297481536865
100
AcDbLine
 10
456.9885912750621
 20
578.4316641132336
 30
0.0
 11
453.2590912750621
 21
578.4316641132336
 31
0.0
  0
LINE
  5
509
330
23
100
AcDbEntity
  8
Mittelpunktmarkierung(DIN)
 62
     7
 48
3.968297481536865
100
AcDbLine
 10
456.9885912750621
 20
578.4316641132336
 30
0.0
 11
456.9885912750621
 21
582.1611641132335
 31
0.0
  0
LINE
  5
50A
330
23
100
AcDbEntity
  8
Mittelpunktmarkierung(DIN)
 62
     7
 48
3.968297481536865
100
AcDbLine
 10
456.9885912750621
 20
578.4316641132336
 30
0.0
 11
456.9885912750621
 21
574.7021641132335
 31
0.0
  0
LINE
  5
50B
330
23
100
AcDbEntity
  8
Mittelpunktmarkierung(DIN)
 62
     7
 48
3.968297481536865
100
AcDbLine
 10
456.4885912750622
 20
554.9316641132334
 30
0.0
 11
460.2180912750621
 21
554.9316641132334
 31
0.0
  0
LINE
  5
50C
330
23
100
AcDbEntity
  8
Mittelpunktmarkierung(DIN)
 62
     7
 48
3.968297481536865
100
AcDbLine
 10
456.4885912750622
 20
554.9316641132334
 30
0.0
 11
452.7590912750621
 21
554.9316641132334
 31
0.0
  0
LINE
  5
50D
330
23
100
AcDbEntity
  8
Mittelpunktmarkierung(DIN)
 62
     7
 48
3.968297481536865
100
AcDbLine
 10
456.4885912750622
 20
554.9316641132334
 30
0.0
 11
456.4885912750622
 21
558.6611641132335
 31
0.0
  0
LINE
  5
50E
330
23
100
AcDbEntity
  8
Mittelpunktmarkierung(DIN)
 62
     7
 48
3.968297481536865
100
AcDbLine
 10
456.4885912750622
 20
554.9316641132334
 30
0.0
 11
456.4885912750622
 21
551.2021641132336
 31
0.0
  0
LINE
  5
50F
330
23
100
AcDbEntity
  8
Mittelpunktmarkierung(DIN)
 62
     7
 48
3.968297481536865
100
AcDbLine
 10
553.4885912750621
 20
593.9316641132336
 30
0.0
 11
557.2180912750621
 21
593.9316641132336
 31
0.0
  0
LINE
  5
510
330
23
100
AcDbEntity
  8
Mittelpunktmarkierung(DIN)
 62
     7
 48
3.968297481536865
100
AcDbLine
 10
553.4885912750621
 20
593.9316641132336
 30
0.0
 11
549.7590912750621
 21
593.9316641132336
 31
0.0
  0
LINE
  5
511
330
23
100
AcDbEntity
  8
Mittelpunktmarkierung(DIN)
 62
     7
 48
3.968297481536865
100
AcDbLine
 10
553.4885912750621
 20
593.9316641132336
 30
0.0
 11
553.4885912750621
 21
597.6611641132335
 31
0.0
  0
LINE
  5
512
330
23
100
AcDbEntity
  8
Mittelpunktmarkierung(DIN)
 62
     7
 48
3.968297481536865
100
AcDbLine
 10
553.4885912750621
 20
593.9316641132336
 30
0.0
 11
553.4885912750621
 21
590.2021641132336
 31
0.0
  0
LINE
  5
513
330
23
100
AcDbEntity
  8
Mittelpunktmarkierung(DIN)
 62
     7
 48
3.968297481536865
100
AcDbLine
 10
649.9885912750621
 20
578.4316641132336
 30
0.0
 11
653.7180912750621
 21
578.4316641132336
 31
0.0
  0
LINE
  5
514
330
23
100
AcDbEntity
  8
Mittelpunktmarkierung(DIN)
 62
     7
 48
3.968297481536865
100
AcDbLine
 10
649.9885912750621
 20
578.4316641132336
 30
0.0
 11
646.2590912750621
 21
578.4316641132336
 31
0.0
  0
LINE
  5
515
330
23
100
AcDbEntity
  8
Mittelpunktmarkierung(DIN)
 62
     7
 48
3.968297481536865
100
AcDbLine
 10
649.9885912750621
 20
578.4316641132336
 30
0.0
 11
649.9885912750621
 21
582.1611641132336
 31
0.0
  0
LINE
  5
516
330
23
100
AcDbEntity
  8
Mittelpunktmarkierung(DIN)
 62
     7
 48
3.968297481536865
100
AcDbLine
 10
649.9885912750621
 20
578.4316641132336
 30
0.0
 11
649.9885912750621
 21
574.7021641132337
 31
0.0
  0
LINE
  5
517
330
23
100
AcDbEntity
  8
Mittelpunktmarkierung(DIN)
 62
     7
 48
11.14864826202392
100
AcDbLine
 10
553.4885912750621
 20
629.6816641132336
 30
0.0
 11
561.7385912750621
 21
629.6816641132336
 31
0.0
  0
LINE
  5
518
330
23
100
AcDbEntity
  8
Mittelpunktmarkierung(DIN)
 62
     7
 48
11.14864826202392
100
AcDbLine
 10
553.4885912750621
 20
629.6816641132336
 30
0.0
 11
545.2385912750621
 21
629.6816641132336
 31
0.0
  0
LINE
  5
519
330
23
100
AcDbEntity
  8
Mittelpunktmarkierung(DIN)
 62
     7
 48
2.660040378570556
100
AcDbLine
 10
553.4885912750621
 20
629.6816641132336
 30
0.0
 11
553.4885912750621
 21
632.1816641132336
 31
0.0
  0
LINE
  5
51A
330
23
100
AcDbEntity
  8
Mittelpunktmarkierung(DIN)
 62
     7
 48
11.14864826202392
100
AcDbLine
 10
553.4885912750621
 20
629.6816641132336
 30
0.0
 11
553.4885912750621
 21
621.4316641132336
 31
0.0
  0
LINE
  5
51B
330
23
100
AcDbEntity
  8
Mittelpunktmarkierung(DIN)
 62
     7
 48
7.432432651519775
100
AcDbLine
 10
553.4885912750621
 20
638.4316641132336
 30
0.0
 11
558.9885912750621
 21
638.4316641132336
 31
0.0
  0
LINE
  5
51C
330
23
100
AcDbEntity
  8
Mittelpunktmarkierung(DIN)
 62
     7
 48
7.432432651519775
100
AcDbLine
 10
553.4885912750621
 20
638.4316641132336
 30
0.0
 11
547.9885912750622
 21
638.4316641132336
 31
0.0
  0
LINE
  5
51D
330
23
100
AcDbEntity
  8
Mittelpunktmarkierung(DIN)
 62
     7
 48
7.432432651519775
100
AcDbLine
 10
553.4885912750621
 20
638.4316641132336
 30
0.0
 11
553.4885912750621
 21
643.9316641132336
 31
0.0
  0
LINE
  5
51E
330
23
100
AcDbEntity
  8
Mittelpunktmarkierung(DIN)
 62
     7
 48
2.660040378570556
100
AcDbLine
 10
553.4885912750621
 20
638.4316641132336
 30
0.0
 11
553.4885912750621
 21
635.9316641132336
 31
0.0
  0
LINE
  5
51F
330
23
100
AcDbEntity
  8
Mittelpunktmarkierung(DIN)
 62
     7
 48
8.108108520507812
100
AcDbLine
 10
497.4885912750621
 20
506.4316641132335
 30
0.0
 11
509.4885912750621
 21
506.4316641132335
 31
0.0
  0
LINE
  5
520
330
23
100
AcDbEntity
  8
Mittelpunktmarkierung(DIN)
 62
     7
 48
8.108108520507812
100
AcDbLine
 10
497.4885912750621
 20
506.4316641132335
 30
0.0
 11
485.4885912750622
 21
506.4316641132335
 31
0.0
  0
LINE
  5
521
330
23
100
AcDbEntity
  8
Mittelpunktmarkierung(DIN)
 62
     7
 48
8.108108520507812
100
AcDbLine
 10
497.4885912750621
 20
506.4316641132335
 30
0.0
 11
497.4885912750621
 21
518.4316641132336
 31
0.0
  0
LINE
  5
522
330
23
100
AcDbEntity
  8
Mittelpunktmarkierung(DIN)
 62
     7
 48
8.108108520507812
100
AcDbLine
 10
497.4885912750621
 20
506.4316641132335
 30
0.0
 11
497.4885912750621
 21
494.4316641132336
 31
0.0
  0
LINE
  5
523
330
23
100
AcDbEntity
  8
Mittelpunktmarkierung(DIN)
 62
     7
 48
8.108108520507812
100
AcDbLine
 10
525.4885912750621
 20
506.4316641132335
 30
0.0
 11
537.4885912750621
 21
506.4316641132335
 31
0.0
  0
LINE
  5
524
330
23
100
AcDbEntity
  8
Mittelpunktmarkierung(DIN)
 62
     7
 48
8.108108520507812
100
AcDbLine
 10
525.4885912750621
 20
506.4316641132335
 30
0.0
 11
513.4885912750621
 21
506.4316641132335
 31
0.0
  0
LINE
  5
525
330
23
100
AcDbEntity
  8
Mittelpunktmarkierung(DIN)
 62
     7
 48
8.108108520507812
100
AcDbLine
 10
525.4885912750621
 20
506.4316641132335
 30
0.0
 11
525.4885912750621
 21
518.4316641132336
 31
0.0
  0
LINE
  5
526
330
23
100
AcDbEntity
  8
Mittelpunktmarkierung(DIN)
 62
     7
 48
8.108108520507812
100
AcDbLine
 10
525.4885912750621
 20
506.4316641132335
 30
0.0
 11
525.4885912750621
 21
494.4316641132336
 31
0.0
  0
LINE
  5
527
330
23
100
AcDbEntity
  8
Mittelpunktmarkierung(DIN)
 62
     7
 48
9.45945930480957
100
AcDbLine
 10
553.4885912750621
 20
506.4316641132335
 30
0.0
 11
563.9885912750621
 21
506.4316641132335
 31
0.0
  0
LINE
  5
528
330
23
100
AcDbEntity
  8
Mittelpunktmarkierung(DIN)
 62
     7
 48
9.45945930480957
100
AcDbLine
 10
553.4885912750621
 20
506.4316641132335
 30
0.0
 11
542.9885912750621
 21
506.4316641132335
 31
0.0
  0
LINE
  5
529
330
23
100
AcDbEntity
  8
Mittelpunktmarkierung(DIN)
 62
     7
 48
8.999539375305175
100
AcDbLine
 10
553.4885912750621
 20
506.4316641132335
 30
0.0
 11
553.4885912750621
 21
676.2529669595087
 31
0.0
  0
LINE
  5
52A
330
23
100
AcDbEntity
  8
Mittelpunktmarkierung(DIN)
 62
     7
 48
9.374182701110839
100
AcDbLine
 10
553.4885912750621
 20
506.4316641132335
 30
0.0
 11
553.4885912750621
 21
482.1525303859121
 31
0.0
  0
LINE
  5
52B
330
23
100
AcDbEntity
  8
Mittelpunktmarkierung(DIN)
 62
     7
 48
8.108108520507812
100
AcDbLine
 10
581.4885912750622
 20
506.4316641132335
 30
0.0
 11
593.4885912750622
 21
506.4316641132335
 31
0.0
  0
LINE
  5
52C
330
23
100
AcDbEntity
  8
Mittelpunktmarkierung(DIN)
 62
     7
 48
8.108108520507812
100
AcDbLine
 10
581.4885912750622
 20
506.4316641132335
 30
0.0
 11
569.4885912750621
 21
506.4316641132335
 31
0.0
  0
LINE
  5
52D
330
23
100
AcDbEntity
  8
Mittelpunktmarkierung(DIN)
 62
     7
 48
8.108108520507812
100
AcDbLine
 10
581.4885912750622
 20
506.4316641132335
 30
0.0
 11
581.4885912750622
 21
518.4316641132336
 31
0.0
  0
LINE
  5
52E
330
23
100
AcDbEntity
  8
Mittelpunktmarkierung(DIN)
 62
     7
 48
8.108108520507812
100
AcDbLine
 10
581.4885912750622
 20
506.4316641132335
 30
0.0
 11
581.4885912750622
 21
494.4316641132336
 31
0.0
  0
LINE
  5
52F
330
23
100
AcDbEntity
  8
Mittelpunktmarkierung(DIN)
 62
     7
 48
8.108108520507812
100
AcDbLine
 10
609.4885912750621
 20
506.4316641132335
 30
0.0
 11
621.4885912750621
 21
506.4316641132335
 31
0.0
  0
LINE
  5
530
330
23
100
AcDbEntity
  8
Mittelpunktmarkierung(DIN)
 62
     7
 48
8.108108520507812
100
AcDbLine
 10
609.4885912750621
 20
506.4316641132335
 30
0.0
 11
597.4885912750622
 21
506.4316641132335
 31
0.0
  0
LINE
  5
531
330
23
100
AcDbEntity
  8
Mittelpunktmarkierung(DIN)
 62
     7
 48
8.108108520507812
100
AcDbLine
 10
609.4885912750621
 20
506.4316641132335
 30
0.0
 11
609.4885912750621
 21
518.4316641132336
 31
0.0
  0
LINE
  5
532
330
23
100
AcDbEntity
  8
Mittelpunktmarkierung(DIN)
 62
     7
 48
8.108108520507812
100
AcDbLine
 10
609.4885912750621
 20
506.4316641132335
 30
0.0
 11
609.4885912750621
 21
494.4316641132336
 31
0.0
  0
LINE
  5
533
330
23
100
AcDbEntity
  8
Mittelpunktmarkierung(DIN)
 62
     7
 48
2.660040378570556
100
AcDbLine
 10
627.9460286908418
 20
505.2316641132335
 30
0.0
 11
630.4460286908417
 21
505.2316641132335
 31
0.0
  0
LINE
  5
534
330
23
100
AcDbEntity
  8
Mittelpunktmarkierung(DIN)
 62
     7
 48
10.60810852050781
100
AcDbLine
 10
627.9460286908418
 20
505.2316641132335
 30
0.0
 11
620.0960286908418
 21
505.2316641132335
 31
0.0
  0
LINE
  5
535
330
23
100
AcDbEntity
  8
Mittelpunktmarkierung(DIN)
 62
     7
 48
2.660040378570556
100
AcDbLine
 10
627.9460286908418
 20
505.2316641132335
 30
0.0
 11
627.9460286908418
 21
507.7316641132335
 31
0.0
  0
LINE
  5
536
330
23
100
AcDbEntity
  8
Mittelpunktmarkierung(DIN)
 62
     7
 48
10.60810852050781
100
AcDbLine
 10
627.9460286908418
 20
505.2316641132335
 30
0.0
 11
627.9460286908418
 21
497.3816641132335
 31
0.0
  0
LINE
  5
537
330
23
100
AcDbEntity
  8
Mittelpunktmarkierung(DIN)
 62
     7
 48
7.094594478607177
100
AcDbLine
 10
639.0311538592825
 20
511.6316641132335
 30
0.0
 11
644.2811538592825
 21
511.6316641132335
 31
0.0
  0
LINE
  5
538
330
23
100
AcDbEntity
  8
Mittelpunktmarkierung(DIN)
 62
     7
 48
2.660040378570556
100
AcDbLine
 10
639.0311538592825
 20
511.6316641132335
 30
0.0
 11
636.5311538592825
 21
511.6316641132335
 31
0.0
  0
LINE
  5
539
330
23
100
AcDbEntity
  8
Mittelpunktmarkierung(DIN)
 62
     7
 48
7.094594478607177
100
AcDbLine
 10
639.0311538592825
 20
511.6316641132335
 30
0.0
 11
639.0311538592825
 21
516.8816641132336
 31
0.0
  0
LINE
  5
53A
330
23
100
AcDbEntity
  8
Mittelpunktmarkierung(DIN)
 62
     7
 48
2.660040378570556
100
AcDbLine
 10
639.0311538592825
 20
511.6316641132335
 30
0.0
 11
639.0311538592825
 21
509.1316641132335
 31
0.0
  0
LINE
  5
53B
330
23
100
AcDbEntity
  8
Mittelpunktmarkierung(DIN)
 62
     7
 48
4.468935966491699
100
AcDbLine
 10
651.4885912750621
 20
513.9316641132336
 30
0.0
 11
655.6885912750622
 21
513.9316641132336
 31
0.0
  0
LINE
  5
53C
330
23
100
AcDbEntity
  8
Mittelpunktmarkierung(DIN)
 62
     7
 48
4.468935966491699
100
AcDbLine
 10
651.4885912750621
 20
513.9316641132336
 30
0.0
 11
647.2885912750621
 21
513.9316641132336
 31
0.0
  0
LINE
  5
53D
330
23
100
AcDbEntity
  8
Mittelpunktmarkierung(DIN)
 62
     7
 48
4.468935966491699
100
AcDbLine
 10
651.4885912750621
 20
513.9316641132336
 30
0.0
 11
651.4885912750621
 21
518.1316641132335
 31
0.0
  0
LINE
  5
53E
330
23
100
AcDbEntity
  8
Mittelpunktmarkierung(DIN)
 62
     7
 48
4.468935966491699
100
AcDbLine
 10
651.4885912750621
 20
513.9316641132336
 30
0.0
 11
651.4885912750621
 21
509.7316641132335
 31
0.0
  0
LINE
  5
53F
330
23
100
AcDbEntity
  8
Mittelpunktmarkierung(DIN)
 62
     7
 48
4.468935966491699
100
AcDbLine
 10
455.4885912750621
 20
513.9316641132336
 30
0.0
 11
459.6885912750621
 21
513.9316641132336
 31
0.0
  0
LINE
  5
540
330
23
100
AcDbEntity
  8
Mittelpunktmarkierung(DIN)
 62
     7
 48
4.468935966491699
100
AcDbLine
 10
455.4885912750621
 20
513.9316641132336
 30
0.0
 11
451.2885912750621
 21
513.9316641132336
 31
0.0
  0
LINE
  5
541
330
23
100
AcDbEntity
  8
Mittelpunktmarkierung(DIN)
 62
     7
 48
4.468935966491699
100
AcDbLine
 10
455.4885912750621
 20
513.9316641132336
 30
0.0
 11
455.4885912750621
 21
518.1316641132335
 31
0.0
  0
LINE
  5
542
330
23
100
AcDbEntity
  8
Mittelpunktmarkierung(DIN)
 62
     7
 48
4.468935966491699
100
AcDbLine
 10
455.4885912750621
 20
513.9316641132336
 30
0.0
 11
455.4885912750621
 21
509.7316641132335
 31
0.0
  0
LINE
  5
543
330
23
100
AcDbEntity
  8
Mittelpunktmarkierung(DIN)
 62
     7
 48
2.660040378570556
100
AcDbLine
 10
467.9460286908417
 20
511.6316641132335
 30
0.0
 11
470.4460286908417
 21
511.6316641132335
 31
0.0
  0
LINE
  5
544
330
23
100
AcDbEntity
  8
Mittelpunktmarkierung(DIN)
 62
     7
 48
7.094594478607177
100
AcDbLine
 10
467.9460286908417
 20
511.6316641132335
 30
0.0
 11
462.6960286908417
 21
511.6316641132335
 31
0.0
  0
LINE
  5
545
330
23
100
AcDbEntity
  8
Mittelpunktmarkierung(DIN)
 62
     7
 48
7.094594478607177
100
AcDbLine
 10
467.9460286908417
 20
511.6316641132335
 30
0.0
 11
467.9460286908417
 21
516.8816641132336
 31
0.0
  0
LINE
  5
546
330
23
100
AcDbEntity
  8
Mittelpunktmarkierung(DIN)
 62
     7
 48
2.660040378570556
100
AcDbLine
 10
467.9460286908417
 20
511.6316641132335
 30
0.0
 11
467.9460286908417
 21
509.1316641132335
 31
0.0
  0
LINE
  5
547
330
23
100
AcDbEntity
  8
Mittelpunktmarkierung(DIN)
 62
     7
 48
10.60810852050781
100
AcDbLine
 10
479.0311538592825
 20
505.2316641132335
 30
0.0
 11
486.8811538592825
 21
505.2316641132335
 31
0.0
  0
LINE
  5
548
330
23
100
AcDbEntity
  8
Mittelpunktmarkierung(DIN)
 62
     7
 48
2.660040378570556
100
AcDbLine
 10
479.0311538592825
 20
505.2316641132335
 30
0.0
 11
476.5311538592825
 21
505.2316641132335
 31
0.0
  0
LINE
  5
549
330
23
100
AcDbEntity
  8
Mittelpunktmarkierung(DIN)
 62
     7
 48
2.660040378570556
100
AcDbLine
 10
479.0311538592825
 20
505.2316641132335
 30
0.0
 11
479.0311538592825
 21
507.7316641132335
 31
0.0
  0
LINE
  5
54A
330
23
100
AcDbEntity
  8
Mittelpunktmarkierung(DIN)
 62
     7
 48
10.60810852050781
100
AcDbLine
 10
479.0311538592825
 20
505.2316641132335
 30
0.0
 11
479.0311538592825
 21
497.3816641132335
 31
0.0
  0
LINE
  5
54B
330
23
100
AcDbEntity
  8
Mittellinie(DIN)
 62
     7
 48
3.511285305023193
100
AcDbLine
 10
623.4885912750621
 20
489.4316641132336
 30
0.0
 11
623.4885912750621
 21
492.7316641132335
 31
0.0
  0
LINE
  5
54C
330
23
100
AcDbEntity
  8
Mittellinie(DIN)
 62
     7
 48
2.660040378570556
100
AcDbLine
 10
623.4885912750621
 20
486.9316641132336
 30
0.0
 11
623.4885912750621
 21
489.4316641132336
 31
0.0
  0
LINE
  5
54D
330
23
100
AcDbEntity
  8
Mittellinie(DIN)
 62
     7
 48
2.660040378570556
100
AcDbLine
 10
623.4885912750621
 20
492.7316641132335
 30
0.0
 11
623.4885912750621
 21
495.2316641132336
 31
0.0
  0
LINE
  5
54E
330
23
100
AcDbEntity
  8
Mittellinie(DIN)
 62
     7
 48
3.511285305023193
100
AcDbLine
 10
595.4885912750621
 20
489.4316641132336
 30
0.0
 11
595.4885912750621
 21
492.7316641132335
 31
0.0
  0
LINE
  5
54F
330
23
100
AcDbEntity
  8
Mittellinie(DIN)
 62
     7
 48
2.660040378570556
100
AcDbLine
 10
595.4885912750621
 20
486.9316641132336
 30
0.0
 11
595.4885912750621
 21
489.4316641132336
 31
0.0
  0
LINE
  5
550
330
23
100
AcDbEntity
  8
Mittellinie(DIN)
 62
     7
 48
2.660040378570556
100
AcDbLine
 10
595.4885912750621
 20
492.7316641132335
 30
0.0
 11
595.4885912750621
 21
495.2316641132336
 31
0.0
  0
LINE
  5
551
330
23
100
AcDbEntity
  8
Mittellinie(DIN)
 62
     7
 48
3.511285305023193
100
AcDbLine
 10
567.4885912750621
 20
489.4316641132335
 30
0.0
 11
567.4885912750621
 21
492.7316641132335
 31
0.0
  0
LINE
  5
552
330
23
100
AcDbEntity
  8
Mittellinie(DIN)
 62
     7
 48
2.660040378570556
100
AcDbLine
 10
567.4885912750621
 20
486.9316641132336
 30
0.0
 11
567.4885912750621
 21
489.4316641132335
 31
0.0
  0
LINE
  5
553
330
23
100
AcDbEntity
  8
Mittellinie(DIN)
 62
     7
 48
2.660040378570556
100
AcDbLine
 10
567.4885912750621
 20
492.7316641132335
 30
0.0
 11
567.4885912750621
 21
495.2316641132336
 31
0.0
  0
LINE
  5
554
330
23
100
AcDbEntity
  8
Mittellinie(DIN)
 62
     7
 48
3.511285305023193
100
AcDbLine
 10
539.4885912750622
 20
489.4316641132335
 30
0.0
 11
539.4885912750622
 21
492.7316641132335
 31
0.0
  0
LINE
  5
555
330
23
100
AcDbEntity
  8
Mittellinie(DIN)
 62
     7
 48
2.660040378570556
100
AcDbLine
 10
539.4885912750622
 20
486.9316641132336
 30
0.0
 11
539.4885912750622
 21
489.4316641132335
 31
0.0
  0
LINE
  5
556
330
23
100
AcDbEntity
  8
Mittellinie(DIN)
 62
     7
 48
2.660040378570556
100
AcDbLine
 10
539.4885912750622
 20
492.7316641132335
 30
0.0
 11
539.4885912750622
 21
495.2316641132336
 31
0.0
  0
LINE
  5
557
330
23
100
AcDbEntity
  8
Mittellinie(DIN)
 62
     7
 48
3.511285305023193
100
AcDbLine
 10
511.4885912750621
 20
489.4316641132335
 30
0.0
 11
511.4885912750621
 21
492.7316641132335
 31
0.0
  0
LINE
  5
558
330
23
100
AcDbEntity
  8
Mittellinie(DIN)
 62
     7
 48
2.660040378570556
100
AcDbLine
 10
511.4885912750621
 20
486.9316641132336
 30
0.0
 11
511.4885912750621
 21
489.4316641132335
 31
0.0
  0
LINE
  5
559
330
23
100
AcDbEntity
  8
Mittellinie(DIN)
 62
     7
 48
2.660040378570556
100
AcDbLine
 10
511.4885912750621
 20
492.7316641132335
 30
0.0
 11
511.4885912750621
 21
495.2316641132336
 31
0.0
  0
LINE
  5
55A
330
23
100
AcDbEntity
  8
Mittellinie(DIN)
 62
     7
 48
3.511285305023193
100
AcDbLine
 10
483.4885912750621
 20
489.4316641132335
 30
0.0
 11
483.4885912750621
 21
492.7316641132335
 31
0.0
  0
LINE
  5
55B
330
23
100
AcDbEntity
  8
Mittellinie(DIN)
 62
     7
 48
2.660040378570556
100
AcDbLine
 10
483.4885912750621
 20
486.9316641132336
 30
0.0
 11
483.4885912750621
 21
489.4316641132335
 31
0.0
  0
LINE
  5
55C
330
23
100
AcDbEntity
  8
Mittellinie(DIN)
 62
     7
 48
2.660040378570556
100
AcDbLine
 10
483.4885912750621
 20
492.7316641132335
 30
0.0
 11
483.4885912750621
 21
495.2316641132336
 31
0.0
  0
DIMENSION
  5
55D
330
23
100
AcDbEntity
  8
Bemaßungen(DIN)
  6
Continuous
 62
     7
370
    25
100
AcDbDimension
  2
*D13
 10
659.9885912750622
 20
713.4316641132336
 30
0.0
 11
553.4885912750621
 21
713.4316641132336
 31
0.0
 70
   160
  1
<>
 42
213.0
  3
DIN-Stepp
100
AcDbAlignedDimension
 13
446.9885912750621
 23
667.4316641132336
 33
0.0
 14
659.9885912750622
 24
667.4316641132336
 34
0.0
 50
180.0
100
AcDbRotatedDimension
1001
ACAD
1000
DSTYLE
1002
{
1070
   140
1040
3.0
1070
   178
1070
     7
1070
   177
1070
     7
1070
   176
1070
     7
1070
    74
1070
     0
1070
   271
1070
     1
1070
   272
1070
     2
1070
    47
1040
0.0
1070
    48
1040
0.0
1002
}
  0
DIMENSION
  5
62C
330
23
100
AcDbEntity
  8
Bemaßungen(DIN)
  6
Continuous
 62
     7
370
    25
100
AcDbDimension
  2
*D14
 10
657.4885912750621
 20
706.9316641132336
 30
0.0
 11
553.4885912750621
 21
706.9316641132336
 31
0.0
 70
   160
  1
<>
 42
208.0
  3
DIN-Stepp
100
AcDbAlignedDimension
 13
449.488591275062
 23
666.9316641132335
 33
0.0
 14
657.4885912750621
 24
666.9316641132335
 34
0.0
100
AcDbRotatedDimension
1001
ACAD
1000
DSTYLE
1002
{
1070
   140
1040
3.0
1070
   178
1070
     7
1070
   177
1070
     7
1070
   176
1070
     7
1070
    74
1070
     0
1070
   271
1070
     1
1070
   272
1070
     2
1070
    47
1040
0.0
1070
    48
1040
0.0
1002
}
  0
DIMENSION
  5
6F9
330
23
100
AcDbEntity
  8
Bemaßungen(DIN)
  6
Continuous
 62
     7
370
    25
100
AcDbDimension
  2
*D15
 10
650.4885912750621
 20
699.9316641132336
 30
0.0
 11
553.4885912750621
 21
699.9316641132336
 31
0.0
 70
   160
  1
<>
 42
194.0
  3
DIN-Stepp
100
AcDbAlignedDimension
 13
456.4885912750621
 23
659.9316641132336
 33
0.0
 14
650.4885912750621
 24
659.9316641132336
 34
0.0
 50
180.0
100
AcDbRotatedDimension
1001
ACAD
1000
DSTYLE
1002
{
1070
   140
1040
3.0
1070
   178
1070
     7
1070
   177
1070
     7
1070
   176
1070
     7
1070
    74
1070
     0
1070
   271
1070
     1
1070
   272
1070
     2
1070
    47
1040
0.0
1070
    48
1040
0.0
1002
}
  0
DIMENSION
  5
7C6
330
23
100
AcDbEntity
  8
Bemaßungen(DIN)
  6
Continuous
 62
     7
370
    25
100
AcDbDimension
  2
*D16
 10
614.9885912750622
 20
693.9316641132336
 30
0.0
 11
553.4885912750621
 21
693.9316641132336
 31
0.0
 70
   160
  1
<>
 42
123.0
  3
DIN-Stepp
100
AcDbAlignedDimension
 13
491.9885912750621
 23
659.9316641132336
 33
0.0
 14
614.9885912750622
 24
659.9316641132336
 34
0.0
 50
180.0
100
AcDbRotatedDimension
1001
ACAD
1000
DSTYLE
1002
{
1070
   140
1040
3.0
1070
   178
1070
     7
1070
   177
1070
     7
1070
   176
1070
     7
1070
    74
1070
     0
1070
   271
1070
     1
1070
   272
1070
     2
1070
    47
1040
0.0
1070
    48
1040
0.0
1002
}
  0
INSERT
  5
8B4
330
23
100
AcDbEntity
  8
Schnittansichtslinien(DIN)
 62
     7
100
AcDbBlockReference
  2
2DTransSchnitt0
 10
422.0718608022091
 20
439.9292716547836
 30
0.0
  0
LINE
  5
8B5
330
23
100
AcDbEntity
  8
Sichtbare Kanten(DIN)
 62
     7
100
AcDbLine
 10
698.7127410575214
 20
593.9316641132336
 30
0.0
 11
699.4514991886159
 21
595.1611641132335
 31
0.0
  0
LINE
  5
8B6
330
23
100
AcDbEntity
  8
Sichtbare Kanten(DIN)
 62
     7
100
AcDbLine
 10
699.4514991886159
 20
595.1611641132335
 30
0.0
 11
707.4514991886159
 21
595.1611641132335
 31
0.0
  0
LINE
  5
8B7
330
23
100
AcDbEntity
  8
Sichtbare Kanten(DIN)
 62
     7
100
AcDbLine
 10
707.4514991886159
 20
595.1611641132335
 30
0.0
 11
707.4514991886159
 21
597.9316641132336
 31
0.0
  0
LINE
  5
8B8
330
23
100
AcDbEntity
  8
Sichtbare Kanten(DIN)
 62
     7
100
AcDbLine
 10
707.4514991886159
 20
597.9316641132336
 30
0.0
 11
702.9514991886159
 21
597.9316641132336
 31
0.0
  0
LINE
  5
8B9
330
23
100
AcDbEntity
  8
Sichtbare Kanten(DIN)
 62
     7
100
AcDbLine
 10
702.9514991886159
 20
597.9316641132336
 30
0.0
 11
702.9514991886159
 21
620.4316641132336
 31
0.0
  0
LINE
  5
8BA
330
23
100
AcDbEntity
  8
Sichtbare Kanten(DIN)
 62
     7
100
AcDbLine
 10
702.9514991886159
 20
620.4316641132336
 30
0.0
 11
694.2514991886159
 21
620.4316641132336
 31
0.0
  0
LINE
  5
8BB
330
23
100
AcDbEntity
  8
Sichtbare Kanten(DIN)
 62
     7
100
AcDbLine
 10
694.2514991886159
 20
620.4316641132336
 30
0.0
 11
694.2514991886159
 21
623.9316641132336
 31
0.0
  0
LINE
  5
8BC
330
23
100
AcDbEntity
  8
Sichtbare Kanten(DIN)
 62
     7
100
AcDbLine
 10
694.2514991886159
 20
623.9316641132336
 30
0.0
 11
689.6514991886158
 21
623.9316641132336
 31
0.0
  0
LINE
  5
8BD
330
23
100
AcDbEntity
  8
Sichtbare Kanten(DIN)
 62
     7
100
AcDbLine
 10
689.6514991886158
 20
623.9316641132336
 30
0.0
 11
689.6514991886158
 21
612.4316641132336
 31
0.0
  0
LINE
  5
8BE
330
23
100
AcDbEntity
  8
Sichtbare Kanten(DIN)
 62
     7
100
AcDbLine
 10
689.6514991886158
 20
612.4316641132336
 30
0.0
 11
697.1514991886158
 21
612.4316641132336
 31
0.0
  0
LINE
  5
8BF
330
23
100
AcDbEntity
  8
Sichtbare Kanten(DIN)
 62
     7
100
AcDbLine
 10
697.1514991886158
 20
612.4316641132336
 30
0.0
 11
697.1514991886158
 21
515.9316641132336
 31
0.0
  0
LINE
  5
8C0
330
23
100
AcDbEntity
  8
Sichtbare Kanten(DIN)
 62
     7
100
AcDbLine
 10
697.1514991886158
 20
515.9316641132336
 30
0.0
 11
699.4514991886159
 21
515.9316641132336
 31
0.0
  0
LINE
  5
8C1
330
23
100
AcDbEntity
  8
Sichtbare Kanten(DIN)
 62
     7
100
AcDbLine
 10
699.4514991886159
 20
515.9316641132336
 30
0.0
 11
699.4514991886159
 21
514.4316641132336
 31
0.0
  0
LINE
  5
8C2
330
23
100
AcDbEntity
  8
Sichtbare Kanten(DIN)
 62
     7
100
AcDbLine
 10
699.4514991886159
 20
514.4316641132336
 30
0.0
 11
698.7014991886159
 21
514.4316641132336
 31
0.0
  0
LINE
  5
8C3
330
23
100
AcDbEntity
  8
Sichtbare Kanten(DIN)
 62
     7
100
AcDbLine
 10
698.7014991886159
 20
514.4316641132336
 30
0.0
 11
698.7014991886159
 21
498.4316641132336
 31
0.0
  0
LINE
  5
8C4
330
23
100
AcDbEntity
  8
Sichtbare Kanten(DIN)
 62
     7
100
AcDbLine
 10
698.7014991886159
 20
498.4316641132336
 30
0.0
 11
699.4514991886159
 21
498.4316641132336
 31
0.0
  0
LINE
  5
8C5
330
23
100
AcDbEntity
  8
Sichtbare Kanten(DIN)
 62
     7
100
AcDbLine
 10
699.4514991886159
 20
498.4316641132336
 30
0.0
 11
699.4514991886159
 21
496.9316641132335
 31
0.0
  0
LINE
  5
8C6
330
23
100
AcDbEntity
  8
Sichtbare Kanten(DIN)
 62
     7
100
AcDbLine
 10
699.4514991886159
 20
496.9316641132335
 30
0.0
 11
697.1514991886158
 21
496.9316641132335
 31
0.0
  0
LINE
  5
8C7
330
23
100
AcDbEntity
  8
Sichtbare Kanten(DIN)
 62
     7
100
AcDbLine
 10
697.1514991886158
 20
496.9316641132335
 30
0.0
 11
697.1514991886158
 21
489.4316641132335
 31
0.0
  0
LINE
  5
8C8
330
23
100
AcDbEntity
  8
Sichtbare Kanten(DIN)
 62
     7
100
AcDbLine
 10
697.1514991886158
 20
489.4316641132335
 30
0.0
 11
735.1514991886158
 21
489.4316641132335
 31
0.0
  0
LINE
  5
8C9
330
23
100
AcDbEntity
  8
Sichtbare Kanten(DIN)
 62
     7
100
AcDbLine
 10
735.1514991886158
 20
489.4316641132335
 30
0.0
 11
735.1514991886158
 21
492.9316641132335
 31
0.0
  0
LINE
  5
8CA
330
23
100
AcDbEntity
  8
Sichtbare Kanten(DIN)
 62
     7
100
AcDbLine
 10
735.1514991886158
 20
492.9316641132335
 30
0.0
 11
699.9514991886159
 21
492.9316641132335
 31
0.0
  0
LINE
  5
8CB
330
23
100
AcDbEntity
  8
Sichtbare Kanten(DIN)
 62
     7
100
AcDbLine
 10
699.9514991886159
 20
492.9316641132335
 30
0.0
 11
699.9514991886159
 21
520.4316641132336
 31
0.0
  0
LINE
  5
8CC
330
23
100
AcDbEntity
  8
Sichtbare Kanten(DIN)
 62
     7
100
AcDbLine
 10
699.9514991886159
 20
520.4316641132336
 30
0.0
 11
709.9514991886159
 21
520.4316641132336
 31
0.0
  0
LINE
  5
8CD
330
23
100
AcDbEntity
  8
Sichtbare Kanten(DIN)
 62
     7
100
AcDbLine
 10
709.9514991886159
 20
520.4316641132336
 30
0.0
 11
709.9514991886159
 21
529.4316641132336
 31
0.0
  0
LINE
  5
8CE
330
23
100
AcDbEntity
  8
Sichtbare Kanten(DIN)
 62
     7
100
AcDbLine
 10
709.9514991886159
 20
529.4316641132336
 30
0.0
 11
702.9514991886159
 21
529.4316641132336
 31
0.0
  0
LINE
  5
8CF
330
23
100
AcDbEntity
  8
Sichtbare Kanten(DIN)
 62
     7
100
AcDbLine
 10
702.9514991886159
 20
529.4316641132336
 30
0.0
 11
702.9514991886159
 21
589.9316641132336
 31
0.0
  0
LINE
  5
8D0
330
23
100
AcDbEntity
  8
Sichtbare Kanten(DIN)
 62
     7
100
AcDbLine
 10
702.9514991886159
 20
589.9316641132336
 30
0.0
 11
707.4514991886159
 21
589.9316641132336
 31
0.0
  0
LINE
  5
8D1
330
23
100
AcDbEntity
  8
Sichtbare Kanten(DIN)
 62
     7
100
AcDbLine
 10
707.4514991886159
 20
589.9316641132336
 30
0.0
 11
707.4514991886159
 21
592.7021641132336
 31
0.0
  0
LINE
  5
8D2
330
23
100
AcDbEntity
  8
Sichtbare Kanten(DIN)
 62
     7
100
AcDbLine
 10
707.4514991886159
 20
592.7021641132336
 30
0.0
 11
699.4514991886159
 21
592.7021641132336
 31
0.0
  0
LINE
  5
8D3
330
23
100
AcDbEntity
  8
Sichtbare Kanten(DIN)
 62
     7
100
AcDbLine
 10
699.4514991886159
 20
592.7021641132336
 30
0.0
 11
698.7127410575214
 21
593.9316641132336
 31
0.0
  0
LINE
  5
8D4
330
23
100
AcDbEntity
  8
Sichtbare Kanten(DIN)
 62
     7
100
AcDbLine
 10
694.2514991886159
 20
643.4316641132336
 30
0.0
 11
702.9514991886159
 21
643.4316641132336
 31
0.0
  0
LINE
  5
8D5
330
23
100
AcDbEntity
  8
Sichtbare Kanten(DIN)
 62
     7
100
AcDbLine
 10
702.9514991886159
 20
643.4316641132336
 30
0.0
 11
702.9514991886159
 21
656.1816641132335
 31
0.0
  0
LINE
  5
8D6
330
23
100
AcDbEntity
  8
Sichtbare Kanten(DIN)
 62
     7
100
AcDbLine
 10
702.9514991886159
 20
656.1816641132335
 30
0.0
 11
709.1514991886159
 21
656.1816641132335
 31
0.0
  0
LINE
  5
8D7
330
23
100
AcDbEntity
  8
Sichtbare Kanten(DIN)
 62
     7
100
AcDbLine
 10
709.1514991886159
 20
656.1816641132335
 30
0.0
 11
709.1514991886158
 21
665.4316641132336
 31
0.0
  0
LINE
  5
8D8
330
23
100
AcDbEntity
  8
Sichtbare Kanten(DIN)
 62
     7
100
AcDbLine
 10
709.1514991886158
 20
665.4316641132336
 30
0.0
 11
771.9514991886158
 21
665.4316641132336
 31
0.0
  0
LINE
  5
8D9
330
23
100
AcDbEntity
  8
Sichtbare Kanten(DIN)
 62
     7
100
AcDbLine
 10
771.9514991886158
 20
665.4316641132336
 30
0.0
 11
771.9514991886158
 21
666.9316641132336
 31
0.0
  0
LINE
  5
8DA
330
23
100
AcDbEntity
  8
Sichtbare Kanten(DIN)
 62
     7
100
AcDbLine
 10
771.9514991886158
 20
666.9316641132336
 30
0.0
 11
777.1514991886158
 21
666.9316641132336
 31
0.0
  0
LINE
  5
8DB
330
23
100
AcDbEntity
  8
Sichtbare Kanten(DIN)
 62
     7
100
AcDbLine
 10
777.1514991886158
 20
666.9316641132336
 30
0.0
 11
777.1514991886158
 21
668.9316641132336
 31
0.0
  0
ARC
  5
8DC
330
23
100
AcDbEntity
  8
Sichtbare Kanten(DIN)
 62
     7
100
AcDbCircle
 10
776.6514991886159
 20
668.9316641132336
 30
0.0
 40
0.4999999999999805
100
AcDbArc
 50
0.0
 51
90.00000000000811
  0
LINE
  5
8DD
330
23
100
AcDbEntity
  8
Sichtbare Kanten(DIN)
 62
     7
100
AcDbLine
 10
776.6514991886159
 20
669.4316641132336
 30
0.0
 11
697.1514991886158
 21
669.4316641132336
 31
0.0
  0
LINE
  5
8DE
330
23
100
AcDbEntity
  8
Sichtbare Kanten(DIN)
 62
     7
100
AcDbLine
 10
697.1514991886158
 20
669.4316641132336
 30
0.0
 11
697.1514991886158
 21
648.4316641132336
 31
0.0
  0
LINE
  5
8DF
330
23
100
AcDbEntity
  8
Sichtbare Kanten(DIN)
 62
     7
100
AcDbLine
 10
697.1514991886158
 20
648.4316641132336
 30
0.0
 11
689.6514991886158
 21
648.4316641132336
 31
0.0
  0
LINE
  5
8E0
330
23
100
AcDbEntity
  8
Sichtbare Kanten(DIN)
 62
     7
100
AcDbLine
 10
689.6514991886158
 20
648.4316641132336
 30
0.0
 11
689.6514991886158
 21
641.4316641132336
 31
0.0
  0
LINE
  5
8E1
330
23
100
AcDbEntity
  8
Sichtbare Kanten(DIN)
 62
     7
100
AcDbLine
 10
689.6514991886158
 20
641.4316641132336
 30
0.0
 11
694.2514991886159
 21
641.4316641132336
 31
0.0
  0
LINE
  5
8E2
330
23
100
AcDbEntity
  8
Sichtbare Kanten(DIN)
 62
     7
100
AcDbLine
 10
694.2514991886159
 20
641.4316641132336
 30
0.0
 11
694.2514991886159
 21
643.4316641132336
 31
0.0
  0
LINE
  5
8E3
330
23
100
AcDbEntity
  8
Sichtbare Kanten(DIN)
 62
     7
100
AcDbLine
 10
777.1514991886158
 20
666.9316641132336
 30
0.0
 11
777.1514991886158
 21
547.9316641132336
 31
0.0
  0
LINE
  5
8E4
330
23
100
AcDbEntity
  8
Sichtbare Kanten(DIN)
 62
     7
100
AcDbLine
 10
777.1514991886158
 20
547.9316641132336
 30
0.0
 11
777.1514991886158
 21
545.9316641132336
 31
0.0
  0
LINE
  5
8E5
330
23
100
AcDbEntity
  8
Sichtbare Kanten(DIN)
 62
     7
100
AcDbLine
 10
771.9514991886158
 20
665.4316641132336
 30
0.0
 11
771.9514991886158
 21
656.1816641132335
 31
0.0
  0
LINE
  5
8E6
330
23
100
AcDbEntity
  8
Sichtbare Kanten(DIN)
 62
     7
100
AcDbLine
 10
771.9514991886158
 20
656.1816641132335
 30
0.0
 11
771.9514991886158
 21
564.2816641132335
 31
0.0
  0
LINE
  5
8E7
330
23
100
AcDbEntity
  8
Sichtbare Kanten(DIN)
 62
     7
100
AcDbLine
 10
771.9514991886158
 20
558.6816641132336
 30
0.0
 11
771.9514991886158
 21
550.5316641132335
 31
0.0
  0
LINE
  5
8E8
330
23
100
AcDbEntity
  8
Sichtbare Kanten(DIN)
 62
     7
100
AcDbLine
 10
771.9514991886158
 20
558.6816641132336
 30
0.0
 11
709.1514991886159
 21
558.6816641132336
 31
0.0
  0
LINE
  5
8E9
330
23
100
AcDbEntity
  8
Sichtbare Kanten(DIN)
 62
     7
100
AcDbLine
 10
709.1514991886159
 20
656.1816641132335
 30
0.0
 11
709.1514991886159
 21
558.6816641132336
 31
0.0
  0
LINE
  5
8EA
330
23
100
AcDbEntity
  8
Sichtbare Kanten(DIN)
 62
     7
100
AcDbLine
 10
729.9514991886159
 20
547.9316641132336
 30
0.0
 11
777.1514991886158
 21
547.9316641132336
 31
0.0
  0
LINE
  5
8EB
330
23
100
AcDbEntity
  8
Sichtbare Kanten(DIN)
 62
     7
100
AcDbLine
 10
776.6514991886158
 20
545.4316641132336
 30
0.0
 11
709.9514991886159
 21
545.4316641132336
 31
0.0
  0
LINE
  5
8EC
330
23
100
AcDbEntity
  8
Sichtbare Kanten(DIN)
 62
     7
100
AcDbLine
 10
771.9514991886158
 20
656.1816641132335
 30
0.0
 11
709.1514991886159
 21
656.1816641132335
 31
0.0
  0
LINE
  5
8ED
330
23
100
AcDbEntity
  8
Sichtbare Kanten(DIN)
 62
     7
100
AcDbLine
 10
771.9514991886158
 20
564.2816641132335
 30
0.0
 11
771.9514991886158
 21
562.5816641132335
 31
0.0
  0
LINE
  5
8EE
330
23
100
AcDbEntity
  8
Sichtbare Kanten(DIN)
 62
     7
100
AcDbLine
 10
771.9514991886158
 20
562.5816641132335
 30
0.0
 11
771.9514991886158
 21
560.3816641132335
 31
0.0
  0
LINE
  5
8EF
330
23
100
AcDbEntity
  8
Sichtbare Kanten(DIN)
 62
     7
100
AcDbLine
 10
771.9514991886158
 20
560.3816641132335
 30
0.0
 11
771.9514991886158
 21
558.6816641132336
 31
0.0
  0
LINE
  5
8F0
330
23
100
AcDbEntity
  8
Sichtbare Kanten(DIN)
 62
     7
100
AcDbLine
 10
771.9514991886158
 20
560.3816641132335
 30
0.0
 11
709.1514991886159
 21
560.3816641132335
 31
0.0
  0
LINE
  5
8F1
330
23
100
AcDbEntity
  8
Sichtbare Kanten(DIN)
 62
     7
100
AcDbLine
 10
771.9514991886158
 20
564.2816641132335
 30
0.0
 11
709.1514991886159
 21
564.2816641132335
 31
0.0
  0
LINE
  5
8F2
330
23
100
AcDbEntity
  8
Sichtbare Kanten(DIN)
 62
     7
100
AcDbLine
 10
771.9514991886158
 20
562.5816641132335
 30
0.0
 11
709.1514991886159
 21
562.5816641132335
 31
0.0
  0
LINE
  5
8F3
330
23
100
AcDbEntity
  8
Sichtbare Kanten(DIN)
 62
     7
100
AcDbLine
 10
771.9514991886158
 20
550.5316641132335
 30
0.0
 11
771.9514991886158
 21
547.9316641132336
 31
0.0
  0
LINE
  5
8F4
330
23
100
AcDbEntity
  8
Sichtbare Kanten(DIN)
 62
     7
100
AcDbLine
 10
729.9514991886159
 20
550.5316641132335
 30
0.0
 11
771.9514991886158
 21
550.5316641132335
 31
0.0
  0
LINE
  5
8F5
330
23
100
AcDbEntity
  8
Sichtbare Kanten(DIN)
 62
     7
100
AcDbLine
 10
729.9514991886159
 20
547.9316641132336
 30
0.0
 11
729.9514991886159
 21
550.5316641132335
 31
0.0
  0
LINE
  5
8F6
330
23
100
AcDbEntity
  8
Verdeckte Kanten(DIN)
 62
     7
 48
5.713989734649658
100
AcDbLine
 10
702.9514991886159
 20
656.1816641132335
 30
0.0
 11
699.9514991886159
 21
656.1816641132335
 31
0.0
  0
LINE
  5
8F7
330
23
100
AcDbEntity
  8
Verdeckte Kanten(DIN)
 62
     7
 48
2.928536891937255
100
AcDbLine
 10
702.9514991886159
 20
597.6397633567814
 30
0.0
 11
702.9514991886159
 21
597.9316641132336
 31
0.0
  0
LINE
  5
8F8
330
23
100
AcDbEntity
  8
Verdeckte Kanten(DIN)
 62
     7
 48
2.928536891937255
100
AcDbLine
 10
702.9514991886159
 20
589.9316641132336
 30
0.0
 11
702.9514991886159
 21
590.2235648696858
 31
0.0
  0
LINE
  5
8F9
330
23
100
AcDbEntity
  8
Verdeckte Kanten(DIN)
 62
     7
 48
12.78725719451904
100
AcDbLine
 10
699.9514991886159
 20
590.2235648696858
 30
0.0
 11
699.9514991886159
 21
529.4316641132336
 31
0.0
  0
LINE
  5
8FA
330
23
100
AcDbEntity
  8
Verdeckte Kanten(DIN)
 62
     7
 48
5.713989734649658
100
AcDbLine
 10
702.9514991886159
 20
590.2235648696858
 30
0.0
 11
699.9514991886159
 21
590.2235648696858
 31
0.0
  0
LINE
  5
8FB
330
23
100
AcDbEntity
  8
Verdeckte Kanten(DIN)
 62
     7
 48
12.33671951293945
100
AcDbLine
 10
699.9514991886159
 20
656.1816641132335
 30
0.0
 11
699.9514991886159
 21
643.4316641132336
 31
0.0
  0
LINE
  5
8FC
330
23
100
AcDbEntity
  8
Verdeckte Kanten(DIN)
 62
     7
 48
13.78320121765136
100
AcDbLine
 10
699.9514991886159
 20
620.4316641132336
 30
0.0
 11
699.9514991886159
 21
597.6397633567814
 31
0.0
  0
LINE
  5
8FD
330
23
100
AcDbEntity
  8
Verdeckte Kanten(DIN)
 62
     7
 48
5.713989734649658
100
AcDbLine
 10
699.9514991886159
 20
597.6397633567814
 30
0.0
 11
702.9514991886159
 21
597.6397633567814
 31
0.0
  0
LINE
  5
8FE
330
23
100
AcDbEntity
  8
Verdeckte Kanten(DIN)
 62
     7
 48
13.51004695892334
100
AcDbLine
 10
699.4514991886159
 20
514.4316641132336
 30
0.0
 11
699.4514991886159
 21
498.4316641132336
 31
0.0
  0
LINE
  5
8FF
330
23
100
AcDbEntity
  8
Sichtbare Kanten(DIN)
 62
     7
100
AcDbLine
 10
697.1514991886158
 20
496.9316641132335
 30
0.0
 11
697.1514991886158
 21
515.9316641132336
 31
0.0
  0
LINE
  5
900
330
23
100
AcDbEntity
  8
Verdeckte Kanten(DIN)
 62
     7
 48
12.66566944122314
100
AcDbLine
 10
697.1514991886158
 20
612.4316641132336
 30
0.0
 11
697.1514991886158
 21
622.4316641132335
 31
0.0
  0
LINE
  5
901
330
23
100
AcDbEntity
  8
Verdeckte Kanten(DIN)
 62
     7
 48
12.90114498138427
100
AcDbLine
 10
697.1514991886158
 20
622.4316641132336
 30
0.0
 11
697.1514991886158
 21
638.4316641132336
 31
0.0
  0
LINE
  5
902
330
23
100
AcDbEntity
  8
Verdeckte Kanten(DIN)
 62
     7
 48
12.66566944122314
100
AcDbLine
 10
697.1514991886158
 20
638.4316641132336
 30
0.0
 11
697.1514991886158
 21
648.4316641132336
 31
0.0
  0
LINE
  5
903
330
23
100
AcDbEntity
  8
Sichtbare Kanten(DIN)
 62
     7
100
AcDbLine
 10
694.2514991886159
 20
634.5870183308207
 30
0.0
 11
694.2514991886159
 21
623.9316641132336
 31
0.0
  0
LINE
  5
904
330
23
100
AcDbEntity
  8
Sichtbare Kanten(DIN)
 62
     7
100
AcDbLine
 10
689.6514991886158
 20
634.5870183308207
 30
0.0
 11
694.2514991886159
 21
634.5870183308207
 31
0.0
  0
LINE
  5
905
330
23
100
AcDbEntity
  8
Sichtbare Kanten(DIN)
 62
     7
100
AcDbLine
 10
689.6514991886158
 20
623.9316641132336
 30
0.0
 11
689.6514991886158
 21
634.5870183308207
 31
0.0
  0
LINE
  5
906
330
23
100
AcDbEntity
  8
Sichtbare Kanten(DIN)
 62
     7
100
AcDbLine
 10
689.6514991886158
 20
638.4316641132336
 30
0.0
 11
689.6514991886158
 21
641.4316641132336
 31
0.0
  0
LINE
  5
907
330
23
100
AcDbEntity
  8
Sichtbare Kanten(DIN)
 62
     7
100
AcDbLine
 10
694.2514991886159
 20
641.4316641132336
 30
0.0
 11
694.2514991886159
 21
638.4316641132336
 31
0.0
  0
LINE
  5
908
330
23
100
AcDbEntity
  8
Sichtbare Kanten(DIN)
 62
     7
100
AcDbLine
 10
694.2514991886159
 20
638.4316641132336
 30
0.0
 11
694.2514991886159
 21
634.5870183308207
 31
0.0
  0
LINE
  5
909
330
23
100
AcDbEntity
  8
Sichtbare Kanten(DIN)
 62
     7
100
AcDbLine
 10
689.6514991886158
 20
634.5870183308207
 30
0.0
 11
689.6514991886158
 21
638.4316641132336
 31
0.0
  0
LINE
  5
90A
330
23
100
AcDbEntity
  8
Sichtbare Kanten(DIN)
 62
     7
100
AcDbLine
 10
709.9514991886159
 20
529.4316641132336
 30
0.0
 11
709.9514991886159
 21
545.4316641132336
 31
0.0
  0
LINE
  5
90B
330
23
100
AcDbEntity
  8
Verdeckte Kanten(DIN)
 62
     7
 48
5.713989734649658
100
AcDbLine
 10
702.9514991886159
 20
529.4316641132336
 30
0.0
 11
699.9514991886159
 21
529.4316641132336
 31
0.0
  0
ARC
  5
90C
330
23
100
AcDbEntity
  8
Sichtbare Kanten(DIN)
 62
     7
100
AcDbCircle
 10
776.6514991886158
 20
545.9316641132336
 30
0.0
 40
0.4999999999999983
100
AcDbArc
 50
270.0
 51
0.0
  0
LINE
  5
90D
330
23
100
AcDbEntity
  8
Sichtbare Kanten(DIN)
 62
     7
100
AcDbLine
 10
689.6514991886158
 20
516.2649000234803
 30
0.0
 11
689.6514991886158
 21
516.9816641132335
 31
0.0
  0
LINE
  5
90E
330
23
100
AcDbEntity
  8
Sichtbare Kanten(DIN)
 62
     7
100
AcDbLine
 10
689.6514991886158
 20
516.2649000234803
 30
0.0
 11
689.6514991886158
 21
509.8649000234803
 31
0.0
  0
LINE
  5
90F
330
23
100
AcDbEntity
  8
Sichtbare Kanten(DIN)
 62
     7
100
AcDbLine
 10
689.6514991886158
 20
499.8816641132335
 30
0.0
 11
689.6514991886158
 21
509.8649000234803
 31
0.0
  0
LINE
  5
910
330
23
100
AcDbEntity
  8
Sichtbare Kanten(DIN)
 62
     7
100
AcDbLine
 10
697.1514991886158
 20
516.9816641132335
 30
0.0
 11
689.6514991886158
 21
516.9816641132335
 31
0.0
  0
LINE
  5
911
330
23
100
AcDbEntity
  8
Sichtbare Kanten(DIN)
 62
     7
100
AcDbLine
 10
697.1514991886158
 20
499.8816641132335
 30
0.0
 11
689.6514991886158
 21
499.8816641132335
 31
0.0
  0
LINE
  5
912
330
23
100
AcDbEntity
  8
Verdeckte Kanten(DIN)
 62
     7
 48
12.31863021850585
100
AcDbLine
 10
724.1514991886158
 20
512.3106641132335
 30
0.0
 11
724.1514991886158
 21
515.5526641132336
 31
0.0
  0
LINE
  5
913
330
23
100
AcDbEntity
  8
Verdeckte Kanten(DIN)
 62
     7
 48
3.601896047592163
100
AcDbLine
 10
723.1775041251721
 20
513.9316641132336
 30
0.0
 11
724.1514991886158
 21
515.5526641132336
 31
0.0
  0
LINE
  5
914
330
23
100
AcDbEntity
  8
Verdeckte Kanten(DIN)
 62
     7
 48
3.601896047592163
100
AcDbLine
 10
723.1775041251721
 20
513.9316641132336
 30
0.0
 11
724.1514991886158
 21
512.3106641132335
 31
0.0
  0
LINE
  5
915
330
23
100
AcDbEntity
  8
Verdeckte Kanten(DIN)
 62
     7
 48
12.90114498138427
100
AcDbLine
 10
724.1514991886158
 20
515.5526641132336
 30
0.0
 11
732.1514991886158
 21
515.5526641132336
 31
0.0
  0
LINE
  5
916
330
23
100
AcDbEntity
  8
Verdeckte Kanten(DIN)
 62
     7
 48
12.90114498138427
100
AcDbLine
 10
724.1514991886158
 20
512.3106641132335
 30
0.0
 11
732.1514991886158
 21
512.3106641132335
 31
0.0
  0
LINE
  5
917
330
23
100
AcDbEntity
  8
Sichtbare Kanten(DIN)
 62
     7
100
AcDbLine
 10
732.1514991886158
 20
518.9316641132336
 30
0.0
 11
732.1514991886158
 21
508.9316641132335
 31
0.0
  0
LINE
  5
918
330
23
100
AcDbEntity
  8
Sichtbare Kanten(DIN)
 62
     7
100
AcDbLine
 10
732.1514991886158
 20
508.9316641132334
 30
0.0
 11
699.9514991886159
 21
508.9316641132334
 31
0.0
  0
LINE
  5
919
330
23
100
AcDbEntity
  8
Sichtbare Kanten(DIN)
 62
     7
100
AcDbLine
 10
732.1514991886158
 20
518.9316641132335
 30
0.0
 11
699.9514991886159
 21
518.9316641132335
 31
0.0
  0
LINE
  5
91A
330
23
100
AcDbEntity
  8
Sichtbare Kanten(DIN)
 62
     7
100
AcDbLine
 10
735.1514991886158
 20
545.4316641132336
 30
0.0
 11
735.1514991886158
 21
544.0316641132335
 31
0.0
  0
LINE
  5
91B
330
23
100
AcDbEntity
  8
Sichtbare Kanten(DIN)
 62
     7
100
AcDbLine
 10
699.9514991886159
 20
643.4316641132336
 30
0.0
 11
699.9514991886159
 21
641.4316641132336
 31
0.0
  0
LINE
  5
91C
330
23
100
AcDbEntity
  8
Sichtbare Kanten(DIN)
 62
     7
100
AcDbLine
 10
699.9514991886159
 20
641.4316641132336
 30
0.0
 11
699.9514991886159
 21
622.4316641132336
 31
0.0
  0
LINE
  5
91D
330
23
100
AcDbEntity
  8
Sichtbare Kanten(DIN)
 62
     7
100
AcDbLine
 10
699.9514991886159
 20
622.4316641132336
 30
0.0
 11
699.9514991886159
 21
620.4316641132336
 31
0.0
  0
LINE
  5
91E
330
23
100
AcDbEntity
  8
Verdeckte Kanten(DIN)
 62
     7
 48
11.4794340133667
100
AcDbLine
 10
699.9514991886159
 20
597.6397633567814
 30
0.0
 11
699.9514991886159
 21
590.2235648696858
 31
0.0
  0
LINE
  5
91F
330
23
100
AcDbEntity
  8
Verdeckte Kanten(DIN)
 62
     7
 48
13.51004695892334
100
AcDbLine
 10
725.1514991886158
 20
490.9816641132335
 30
0.0
 11
709.1514991886158
 21
490.9816641132335
 31
0.0
  0
LINE
  5
920
330
23
100
AcDbEntity
  8
Verdeckte Kanten(DIN)
 62
     7
 48
13.12623882293701
100
AcDbLine
 10
707.6514991886158
 20
492.7316641132335
 30
0.0
 11
726.6514991886158
 21
492.7316641132335
 31
0.0
  0
LINE
  5
921
330
23
100
AcDbEntity
  8
Verdeckte Kanten(DIN)
 62
     7
 48
3.33311915397644
100
AcDbLine
 10
709.1514991886158
 20
490.9816641132335
 30
0.0
 11
709.1514991886158
 21
492.7316641132335
 31
0.0
  0
LINE
  5
922
330
23
100
AcDbEntity
  8
Verdeckte Kanten(DIN)
 62
     7
 48
3.33311915397644
100
AcDbLine
 10
725.1514991886158
 20
490.9816641132335
 30
0.0
 11
725.1514991886158
 21
492.7316641132335
 31
0.0
  0
LINE
  5
923
330
23
100
AcDbEntity
  8
Verdeckte Kanten(DIN)
 62
     7
 48
6.285398960113525
100
AcDbLine
 10
707.6514991886158
 20
489.4316641132335
 30
0.0
 11
707.6514991886158
 21
492.7316641132335
 31
0.0
  0
LINE
  5
924
330
23
100
AcDbEntity
  8
Verdeckte Kanten(DIN)
 62
     7
 48
6.285398960113525
100
AcDbLine
 10
726.6514991886158
 20
489.4316641132335
 30
0.0
 11
726.6514991886158
 21
492.7316641132335
 31
0.0
  0
LINE
  5
925
330
23
100
AcDbEntity
  8
Verdeckte Kanten(DIN)
 62
     7
 48
5.983680725097656
100
AcDbLine
 10
735.1514991886158
 20
547.4316641132336
 30
0.0
 11
735.1514991886158
 21
545.4316641132336
 31
0.0
  0
LINE
  5
926
330
23
100
AcDbEntity
  8
Sichtbare Kanten(DIN)
 62
     7
100
AcDbLine
 10
699.4514991886159
 20
592.7021641132336
 30
0.0
 11
699.4514991886159
 21
595.1611641132335
 31
0.0
  0
LINE
  5
927
330
23
100
AcDbEntity
  8
Sichtbare Kanten(DIN)
 62
     7
100
AcDbLine
 10
707.4514991886159
 20
595.1611641132335
 30
0.0
 11
707.4514991886159
 21
592.7021641132336
 31
0.0
  0
LINE
  5
928
330
23
100
AcDbEntity
  8
Verdeckte Kanten(DIN)
 62
     7
 48
7.356958389282226
100
AcDbLine
 10
701.1514991886159
 20
577.2021641132337
 30
0.0
 11
701.1514991886159
 21
579.6611641132336
 31
0.0
  0
LINE
  5
929
330
23
100
AcDbEntity
  8
Verdeckte Kanten(DIN)
 62
     7
 48
7.356958389282226
100
AcDbLine
 10
701.1514991886159
 20
658.7021641132336
 30
0.0
 11
701.1514991886159
 21
661.1611641132335
 31
0.0
  0
LINE
  5
92A
330
23
100
AcDbEntity
  8
Verdeckte Kanten(DIN)
 62
     7
 48
7.356958389282226
100
AcDbLine
 10
701.1514991886159
 20
633.2021641132337
 30
0.0
 11
701.1514991886159
 21
635.6611641132336
 31
0.0
  0
LINE
  5
92B
330
23
100
AcDbEntity
  8
Verdeckte Kanten(DIN)
 62
     7
 48
2.731950521469116
100
AcDbLine
 10
700.4127410575215
 20
578.4316641132336
 30
0.0
 11
701.1514991886159
 21
579.6611641132336
 31
0.0
  0
LINE
  5
92C
330
23
100
AcDbEntity
  8
Verdeckte Kanten(DIN)
 62
     7
 48
2.731950521469116
100
AcDbLine
 10
700.4127410575215
 20
578.4316641132336
 30
0.0
 11
701.1514991886159
 21
577.2021641132337
 31
0.0
  0
LINE
  5
92D
330
23
100
AcDbEntity
  8
Verdeckte Kanten(DIN)
 62
     7
 48
12.90114498138427
100
AcDbLine
 10
701.1514991886159
 20
579.6611641132336
 30
0.0
 11
709.1514991886159
 21
579.6611641132336
 31
0.0
  0
LINE
  5
92E
330
23
100
AcDbEntity
  8
Verdeckte Kanten(DIN)
 62
     7
 48
12.90114498138427
100
AcDbLine
 10
701.1514991886159
 20
577.2021641132337
 30
0.0
 11
709.1514991886159
 21
577.2021641132337
 31
0.0
  0
LINE
  5
92F
330
23
100
AcDbEntity
  8
Verdeckte Kanten(DIN)
 62
     7
 48
2.731950521469116
100
AcDbLine
 10
700.4127410575215
 20
659.9316641132336
 30
0.0
 11
701.1514991886159
 21
661.1611641132335
 31
0.0
  0
LINE
  5
930
330
23
100
AcDbEntity
  8
Verdeckte Kanten(DIN)
 62
     7
 48
2.731950521469116
100
AcDbLine
 10
700.4127410575215
 20
659.9316641132336
 30
0.0
 11
701.1514991886159
 21
658.7021641132336
 31
0.0
  0
LINE
  5
931
330
23
100
AcDbEntity
  8
Verdeckte Kanten(DIN)
 62
     7
 48
12.90114498138427
100
AcDbLine
 10
701.1514991886159
 20
661.1611641132335
 30
0.0
 11
709.1514991886159
 21
661.1611641132335
 31
0.0
  0
LINE
  5
932
330
23
100
AcDbEntity
  8
Verdeckte Kanten(DIN)
 62
     7
 48
12.90114498138427
100
AcDbLine
 10
701.1514991886159
 20
658.7021641132336
 30
0.0
 11
709.1514991886159
 21
658.7021641132336
 31
0.0
  0
LINE
  5
933
330
23
100
AcDbEntity
  8
Verdeckte Kanten(DIN)
 62
     7
 48
2.731950521469116
100
AcDbLine
 10
700.4127410575215
 20
634.4316641132336
 30
0.0
 11
701.1514991886159
 21
635.6611641132336
 31
0.0
  0
LINE
  5
934
330
23
100
AcDbEntity
  8
Verdeckte Kanten(DIN)
 62
     7
 48
2.731950521469116
100
AcDbLine
 10
700.4127410575215
 20
634.4316641132336
 30
0.0
 11
701.1514991886159
 21
633.2021641132337
 31
0.0
  0
LINE
  5
935
330
23
100
AcDbEntity
  8
Verdeckte Kanten(DIN)
 62
     7
 48
12.90114498138427
100
AcDbLine
 10
701.1514991886159
 20
635.6611641132336
 30
0.0
 11
709.1514991886159
 21
635.6611641132336
 31
0.0
  0
LINE
  5
936
330
23
100
AcDbEntity
  8
Verdeckte Kanten(DIN)
 62
     7
 48
12.90114498138427
100
AcDbLine
 10
701.1514991886159
 20
633.2021641132337
 30
0.0
 11
709.1514991886159
 21
633.2021641132337
 31
0.0
  0
LINE
  5
937
330
23
100
AcDbEntity
  8
Verdeckte Kanten(DIN)
 62
     7
 48
7.356958389282226
100
AcDbLine
 10
763.9514991886159
 20
658.7021641132336
 30
0.0
 11
763.9514991886159
 21
661.1611641132335
 31
0.0
  0
LINE
  5
938
330
23
100
AcDbEntity
  8
Verdeckte Kanten(DIN)
 62
     7
 48
7.356958389282226
100
AcDbLine
 10
763.9514991886159
 20
553.7021641132335
 30
0.0
 11
763.9514991886159
 21
556.1611641132335
 31
0.0
  0
LINE
  5
939
330
23
100
AcDbEntity
  8
Verdeckte Kanten(DIN)
 62
     7
 48
2.731950521469116
100
AcDbLine
 10
763.2127410575215
 20
659.9316641132336
 30
0.0
 11
763.9514991886159
 21
661.1611641132335
 31
0.0
  0
LINE
  5
93A
330
23
100
AcDbEntity
  8
Verdeckte Kanten(DIN)
 62
     7
 48
2.731950521469116
100
AcDbLine
 10
763.2127410575215
 20
659.9316641132336
 30
0.0
 11
763.9514991886159
 21
658.7021641132336
 31
0.0
  0
LINE
  5
93B
330
23
100
AcDbEntity
  8
Verdeckte Kanten(DIN)
 62
     7
 48
12.90114498138427
100
AcDbLine
 10
763.9514991886159
 20
661.1611641132335
 30
0.0
 11
771.9514991886158
 21
661.1611641132335
 31
0.0
  0
LINE
  5
93C
330
23
100
AcDbEntity
  8
Verdeckte Kanten(DIN)
 62
     7
 48
12.90114498138427
100
AcDbLine
 10
763.9514991886159
 20
658.7021641132336
 30
0.0
 11
771.9514991886158
 21
658.7021641132336
 31
0.0
  0
LINE
  5
93D
330
23
100
AcDbEntity
  8
Verdeckte Kanten(DIN)
 62
     7
 48
2.731950521469116
100
AcDbLine
 10
763.2127410575215
 20
554.9316641132336
 30
0.0
 11
763.9514991886159
 21
556.1611641132335
 31
0.0
  0
LINE
  5
93E
330
23
100
AcDbEntity
  8
Verdeckte Kanten(DIN)
 62
     7
 48
2.731950521469116
100
AcDbLine
 10
763.2127410575215
 20
554.9316641132336
 30
0.0
 11
763.9514991886159
 21
553.7021641132335
 31
0.0
  0
LINE
  5
93F
330
23
100
AcDbEntity
  8
Verdeckte Kanten(DIN)
 62
     7
 48
12.90114498138427
100
AcDbLine
 10
763.9514991886159
 20
556.1611641132335
 30
0.0
 11
771.9514991886158
 21
556.1611641132335
 31
0.0
  0
LINE
  5
940
330
23
100
AcDbEntity
  8
Verdeckte Kanten(DIN)
 62
     7
 48
12.90114498138427
100
AcDbLine
 10
763.9514991886159
 20
553.7021641132335
 30
0.0
 11
771.9514991886158
 21
553.7021641132335
 31
0.0
  0
LINE
  5
941
330
23
100
AcDbEntity
  8
Verdeckte Kanten(DIN)
 62
     7
 48
12.45766830444336
100
AcDbLine
 10
689.6514991886158
 20
514.3816641132335
 30
0.0
 11
699.9514991886159
 21
514.3816641132335
 31
0.0
  0
LINE
  5
942
330
23
100
AcDbEntity
  8
Verdeckte Kanten(DIN)
 62
     7
 48
12.45766830444336
100
AcDbLine
 10
689.6514991886158
 20
502.4816641132335
 30
0.0
 11
699.9514991886159
 21
502.4816641132335
 31
0.0
  0
ARC
  5
943
330
23
100
AcDbEntity
  8
Sichtbare Kanten(DIN)
 62
     7
100
AcDbCircle
 10
735.951499188616
 20
491.4316641132336
 30
0.0
 40
1.999999999999984
100
AcDbArc
 50
270.0
 51
0.0
  0
LINE
  5
944
330
23
100
AcDbEntity
  8
Sichtbare Kanten(DIN)
 62
     7
100
AcDbLine
 10
737.9514991886159
 20
491.4316641132336
 30
0.0
 11
737.9514991886159
 21
542.0316641132335
 31
0.0
  0
ARC
  5
945
330
23
100
AcDbEntity
  8
Sichtbare Kanten(DIN)
 62
     7
100
AcDbCircle
 10
735.9514991886158
 20
542.0316641132335
 30
0.0
 40
2.000000000000001
100
AcDbArc
 50
0.0
 51
90.0
  0
LINE
  5
946
330
23
100
AcDbEntity
  8
Sichtbare Kanten(DIN)
 62
     7
100
AcDbLine
 10
735.9514991886158
 20
544.0316641132335
 30
0.0
 11
735.1514991886158
 21
544.0316641132335
 31
0.0
  0
LINE
  5
947
330
23
100
AcDbEntity
  8
Sichtbare Kanten(DIN)
 62
     7
100
AcDbLine
 10
735.1514991886158
 20
544.0316641132335
 30
0.0
 11
735.1514991886158
 21
540.4316641132335
 31
0.0
  0
LINE
  5
948
330
23
100
AcDbEntity
  8
Sichtbare Kanten(DIN)
 62
     7
100
AcDbLine
 10
735.1514991886158
 20
540.4316641132335
 30
0.0
 11
732.7514991886159
 21
540.4316641132335
 31
0.0
  0
LINE
  5
949
330
23
100
AcDbEntity
  8
Sichtbare Kanten(DIN)
 62
     7
100
AcDbLine
 10
732.7514991886159
 20
540.4316641132335
 30
0.0
 11
732.7514991886159
 21
538.5816641132334
 31
0.0
  0
LINE
  5
94A
330
23
100
AcDbEntity
  8
Sichtbare Kanten(DIN)
 62
     7
100
AcDbLine
 10
732.7514991886159
 20
538.5816641132334
 30
0.0
 11
735.1514991886158
 21
538.5816641132334
 31
0.0
  0
LINE
  5
94B
330
23
100
AcDbEntity
  8
Sichtbare Kanten(DIN)
 62
     7
100
AcDbLine
 10
735.1514991886158
 20
538.5816641132334
 30
0.0
 11
735.1514991886158
 21
494.8816641132335
 31
0.0
  0
LINE
  5
94C
330
23
100
AcDbEntity
  8
Sichtbare Kanten(DIN)
 62
     7
100
AcDbLine
 10
735.1514991886158
 20
494.8816641132335
 30
0.0
 11
732.7514991886159
 21
494.8816641132335
 31
0.0
  0
LINE
  5
94D
330
23
100
AcDbEntity
  8
Sichtbare Kanten(DIN)
 62
     7
100
AcDbLine
 10
732.7514991886159
 20
494.8816641132335
 30
0.0
 11
732.7514991886159
 21
493.0316641132335
 31
0.0
  0
LINE
  5
94E
330
23
100
AcDbEntity
  8
Sichtbare Kanten(DIN)
 62
     7
100
AcDbLine
 10
732.7514991886159
 20
493.0316641132335
 30
0.0
 11
735.1514991886158
 21
493.0316641132335
 31
0.0
  0
LINE
  5
94F
330
23
100
AcDbEntity
  8
Sichtbare Kanten(DIN)
 62
     7
100
AcDbLine
 10
735.1514991886158
 20
493.0316641132335
 30
0.0
 11
735.1514991886158
 21
489.4316641132335
 31
0.0
  0
LINE
  5
950
330
23
100
AcDbEntity
  8
Sichtbare Kanten(DIN)
 62
     7
100
AcDbLine
 10
735.1514991886158
 20
489.4316641132335
 30
0.0
 11
735.9514991886158
 21
489.4316641132335
 31
0.0
  0
LINE
  5
951
330
23
100
AcDbEntity
  8
Sichtbare Kanten(DIN)
 62
     7
100
AcDbLine
 10
732.7514991886159
 20
494.8816641132335
 30
0.0
 11
732.7514991886159
 21
509.4316641132335
 31
0.0
  0
LINE
  5
952
330
23
100
AcDbEntity
  8
Sichtbare Kanten(DIN)
 62
     7
100
AcDbLine
 10
732.7514991886159
 20
518.4316641132336
 30
0.0
 11
732.7514991886159
 21
538.5816641132334
 31
0.0
  0
LINE
  5
953
330
23
100
AcDbEntity
  8
Verdeckte Kanten(DIN)
 62
     7
 48
3.52358865737915
100
AcDbLine
 10
735.1514991886158
 20
493.0316641132335
 30
0.0
 11
735.1514991886158
 21
494.8816641132335
 31
0.0
  0
LINE
  5
954
330
23
100
AcDbEntity
  8
Verdeckte Kanten(DIN)
 62
     7
 48
3.52358865737915
100
AcDbLine
 10
735.1514991886158
 20
538.5816641132334
 30
0.0
 11
735.1514991886158
 21
540.4316641132335
 31
0.0
  0
LINE
  5
955
330
23
100
AcDbEntity
  8
Verdeckte Kanten(DIN)
 62
     7
 48
4.571171760559082
100
AcDbLine
 10
735.1514991886158
 20
517.2403647645467
 30
0.0
 11
732.7514991886159
 21
517.2403647645467
 31
0.0
  0
LINE
  5
956
330
23
100
AcDbEntity
  8
Verdeckte Kanten(DIN)
 62
     7
 48
4.571171760559082
100
AcDbLine
 10
732.7514991886159
 20
510.6229634619204
 30
0.0
 11
735.1514991886158
 21
510.6229634619204
 31
0.0
  0
LINE
  5
957
330
23
100
AcDbEntity
  8
Sichtbare Kanten(DIN)
 62
     7
100
AcDbLine
 10
732.7514991886159
 20
509.4316641132335
 30
0.0
 11
732.7514991886159
 21
518.4316641132336
 31
0.0
  0
LINE
  5
958
330
23
100
AcDbEntity
  8
Sichtbare Kanten(DIN)
 62
     7
100
AcDbLine
 10
735.1514991886158
 20
509.4316641132335
 30
0.0
 11
732.7514991886159
 21
509.4316641132335
 31
0.0
  0
LINE
  5
959
330
23
100
AcDbEntity
  8
Sichtbare Kanten(DIN)
 62
     7
100
AcDbLine
 10
735.1514991886158
 20
518.4316641132336
 30
0.0
 11
732.7514991886159
 21
518.4316641132336
 31
0.0
  0
LINE
  5
95A
330
23
100
AcDbEntity
  8
Verdeckte Kanten(DIN)
 62
     7
 48
4.571171760559082
100
AcDbLine
 10
732.7514991886159
 20
515.6316641132336
 30
0.0
 11
735.1514991886158
 21
515.6316641132336
 31
0.0
  0
LINE
  5
95B
330
23
100
AcDbEntity
  8
Verdeckte Kanten(DIN)
 62
     7
 48
4.571171760559082
100
AcDbLine
 10
732.7514991886159
 20
512.2316641132336
 30
0.0
 11
735.1514991886158
 21
512.2316641132336
 31
0.0
  0
LINE
  5
95C
330
23
100
AcDbEntity
  8
Verdeckte Kanten(DIN)
 62
     7
 48
5.33305025100708
100
AcDbLine
 10
735.1514991886158
 20
517.6816641132336
 30
0.0
 11
737.9514991886159
 21
517.6816641132336
 31
0.0
  0
LINE
  5
95D
330
23
100
AcDbEntity
  8
Verdeckte Kanten(DIN)
 62
     7
 48
5.33305025100708
100
AcDbLine
 10
735.1514991886158
 20
510.1816641132336
 30
0.0
 11
737.9514991886159
 21
510.1816641132336
 31
0.0
  0
LINE
  5
95E
330
23
100
AcDbEntity
  8
Sichtbare Kanten(DIN)
 62
     7
100
AcDbLine
 10
794.6359963323678
 20
545.4316641132336
 30
0.0
 11
794.6359963323678
 21
543.8316641132336
 31
0.0
  0
LINE
  5
95F
330
23
100
AcDbEntity
  8
Sichtbare Kanten(DIN)
 62
     7
100
AcDbLine
 10
794.6359963323678
 20
543.8316641132336
 30
0.0
 11
796.5359963323678
 21
543.8316641132336
 31
0.0
  0
LINE
  5
960
330
23
100
AcDbEntity
  8
Sichtbare Kanten(DIN)
 62
     7
100
AcDbLine
 10
796.5359963323678
 20
543.8316641132336
 30
0.0
 11
796.5359963323678
 21
545.4316641132336
 31
0.0
  0
LINE
  5
961
330
23
100
AcDbEntity
  8
Sichtbare Kanten(DIN)
 62
     7
100
AcDbLine
 10
796.5359963323678
 20
545.4316641132336
 30
0.0
 11
836.6514991886159
 21
545.4316641132336
 31
0.0
  0
ARC
  5
962
330
23
100
AcDbEntity
  8
Sichtbare Kanten(DIN)
 62
     7
100
AcDbCircle
 10
836.6514991886159
 20
545.9316641132336
 30
0.0
 40
0.4999999999999983
100
AcDbArc
 50
270.0
 51
0.0
  0
LINE
  5
963
330
23
100
AcDbEntity
  8
Sichtbare Kanten(DIN)
 62
     7
100
AcDbLine
 10
837.1514991886158
 20
545.9316641132336
 30
0.0
 11
837.1514991886158
 21
548.0316641132335
 31
0.0
  0
LINE
  5
964
330
23
100
AcDbEntity
  8
Sichtbare Kanten(DIN)
 62
     7
100
AcDbLine
 10
837.1514991886158
 20
548.0316641132335
 30
0.0
 11
831.9514991886158
 21
548.0316641132335
 31
0.0
  0
LINE
  5
965
330
23
100
AcDbEntity
  8
Sichtbare Kanten(DIN)
 62
     7
100
AcDbLine
 10
831.9514991886158
 20
548.0316641132335
 30
0.0
 11
831.951499188616
 21
549.1316641132335
 31
0.0
  0
LINE
  5
966
330
23
100
AcDbEntity
  8
Sichtbare Kanten(DIN)
 62
     7
100
AcDbLine
 10
831.951499188616
 20
549.1316641132335
 30
0.0
 11
789.6514991886158
 21
549.1316641132335
 31
0.0
  0
LINE
  5
967
330
23
100
AcDbEntity
  8
Sichtbare Kanten(DIN)
 62
     7
100
AcDbLine
 10
789.6514991886158
 20
549.1316641132335
 30
0.0
 11
789.6514991886158
 21
545.4316641132336
 31
0.0
  0
LINE
  5
968
330
23
100
AcDbEntity
  8
Sichtbare Kanten(DIN)
 62
     7
100
AcDbLine
 10
789.6514991886158
 20
545.4316641132336
 30
0.0
 11
794.6359963323678
 21
545.4316641132336
 31
0.0
  0
LINE
  5
969
330
23
100
AcDbEntity
  8
Verdeckte Kanten(DIN)
 62
     7
 48
3.618823528289794
100
AcDbLine
 10
796.5359963323678
 20
545.4316641132336
 30
0.0
 11
794.6359963323678
 21
545.4316641132336
 31
0.0
  0
LINE
  5
96A
330
23
100
AcDbEntity
  8
Verdeckte Kanten(DIN)
 62
     7
 48
12.79027557373046
100
AcDbLine
 10
831.9514991886158
 20
547.9316641132336
 30
0.0
 11
789.6514991886158
 21
547.9316641132336
 31
0.0
  0
LINE
  5
96B
330
23
100
AcDbEntity
  8
Verdeckte Kanten(DIN)
 62
     7
 48
0.1903696656227112
100
AcDbLine
 10
831.9514991886158
 20
547.9316641132336
 30
0.0
 11
831.9514991886158
 21
548.0316641132335
 31
0.0
  0
LINE
  5
96C
330
23
100
AcDbEntity
  8
Sichtbare Kanten(DIN)
 62
     7
100
AcDbLine
 10
831.9514991886158
 20
549.1316641132335
 30
0.0
 11
831.9514991886158
 21
550.0316641132335
 31
0.0
  0
LINE
  5
96D
330
23
100
AcDbEntity
  8
Sichtbare Kanten(DIN)
 62
     7
100
AcDbLine
 10
789.6514991886158
 20
549.1316641132335
 30
0.0
 11
789.6514991886158
 21
550.0316641132335
 31
0.0
  0
LINE
  5
96E
330
23
100
AcDbEntity
  8
Sichtbare Kanten(DIN)
 62
     7
100
AcDbLine
 10
831.9514991886158
 20
550.0316641132335
 30
0.0
 11
789.6514991886158
 21
550.0316641132335
 31
0.0
  0
HATCH
  5
99D
330
23
100
AcDbEntity
  8
Schraffur
 62
     7
100
AcDbHatch
 10
0.0
 20
0.0
 30
0.0
210
0.0
220
0.0
230
1.0
  2
ANSI31
 70
     0
 71
     0
 91
        2
 92
        1
 93
       31
 72
     1
 10
698.7127410575214
 20
593.9316641132336
 11
699.4514991886157
 21
595.1611641132337
 72
     1
 10
699.4514991886159
 20
595.1611641132335
 11
707.4514991886159
 21
595.1611641132335
 72
     1
 10
707.4514991886159
 20
595.1611641132335
 11
707.4514991886159
 21
597.9316641132335
 72
     1
 10
707.4514991886159
 20
597.9316641132336
 11
702.9514991886159
 21
597.9316641132336
 72
     1
 10
702.9514991886159
 20
597.9316641132336
 11
702.9514991886157
 21
620.4316641132337
 72
     1
 10
702.9514991886159
 20
620.4316641132336
 11
694.2514991886159
 21
620.4316641132336
 72
     1
 10
694.2514991886159
 20
620.4316641132336
 11
694.2514991886159
 21
623.9316641132335
 72
     1
 10
694.2514991886159
 20
623.9316641132336
 11
689.6514991886159
 21
623.9316641132336
 72
     1
 10
689.6514991886158
 20
623.9316641132336
 11
689.6514991886158
 21
612.4316641132336
 72
     1
 10
689.6514991886158
 20
612.4316641132336
 11
697.1514991886158
 21
612.4316641132336
 72
     1
 10
697.1514991886158
 20
612.4316641132336
 11
697.1514991886158
 21
515.9316641132336
 72
     1
 10
697.1514991886158
 20
515.9316641132336
 11
699.4514991886157
 21
515.9316641132336
 72
     1
 10
699.4514991886159
 20
515.9316641132336
 11
699.4514991886159
 21
514.4316641132336
 72
     1
 10
699.4514991886159
 20
514.4316641132336
 11
698.7014991886159
 21
514.4316641132336
 72
     1
 10
698.7014991886159
 20
514.4316641132336
 11
698.7014991886159
 21
498.4316641132336
 72
     1
 10
698.7014991886159
 20
498.4316641132336
 11
699.4514991886159
 21
498.4316641132336
 72
     1
 10
699.4514991886159
 20
498.4316641132336
 11
699.4514991886159
 21
496.9316641132335
 72
     1
 10
699.4514991886159
 20
496.9316641132336
 11
697.1514991886158
 21
496.9316641132336
 72
     1
 10
697.1514991886158
 20
496.9316641132336
 11
697.1514991886158
 21
489.4316641132335
 72
     1
 10
697.1514991886158
 20
489.4316641132335
 11
735.1514991886158
 21
489.4316641132335
 72
     1
 10
735.1514991886158
 20
489.4316641132335
 11
735.1514991886158
 21
492.9316641132335
 72
     1
 10
735.1514991886158
 20
492.9316641132335
 11
699.9514991886158
 21
492.9316641132335
 72
     1
 10
699.9514991886159
 20
492.9316641132335
 11
699.9514991886159
 21
520.4316641132336
 72
     1
 10
699.9514991886159
 20
520.4316641132336
 11
709.9514991886159
 21
520.4316641132336
 72
     1
 10
709.9514991886159
 20
520.4316641132336
 11
709.9514991886159
 21
529.4316641132336
 72
     1
 10
709.9514991886159
 20
529.4316641132336
 11
702.9514991886159
 21
529.4316641132336
 72
     1
 10
702.9514991886159
 20
529.4316641132336
 11
702.9514991886157
 21
589.9316641132336
 72
     1
 10
702.9514991886159
 20
589.9316641132336
 11
707.451499188616
 21
589.9316641132336
 72
     1
 10
707.4514991886159
 20
589.9316641132336
 11
707.4514991886159
 21
592.7021641132336
 72
     1
 10
707.4514991886159
 20
592.7021641132336
 11
699.4514991886159
 21
592.7021641132336
 72
     1
 10
699.4514991886159
 20
592.7021641132336
 11
698.7127410575214
 21
593.9316641132336
 97
        0
 92
        1
 93
       15
 72
     1
 10
694.2514991886159
 20
643.4316641132336
 11
702.951499188616
 21
643.4316641132336
 72
     1
 10
702.9514991886159
 20
643.4316641132336
 11
702.9514991886159
 21
656.1816641132335
 72
     1
 10
702.9514991886159
 20
656.1816641132335
 11
709.1514991886158
 21
656.1816641132335
 72
     1
 10
709.1514991886159
 20
656.1816641132335
 11
709.1514991886159
 21
665.4316641132335
 72
     1
 10
709.1514991886159
 20
665.4316641132336
 11
771.951499188616
 21
665.4316641132336
 72
     1
 10
771.9514991886158
 20
665.4316641132336
 11
771.9514991886158
 21
666.9316641132336
 72
     1
 10
771.9514991886158
 20
666.9316641132335
 11
777.1514991886157
 21
666.9316641132335
 72
     1
 10
777.1514991886158
 20
666.9316641132335
 11
777.1514991886158
 21
668.9316641132335
 72
     3
 10
776.6514991886159
 20
668.9316641132336
 11
0.3535533905932675
 21
0.3535533905932801
 40
1.0
 50
314.9999999999989
 51
404.999999999999
 73
     1
 72
     1
 10
776.6514991886159
 20
669.4316641132335
 11
697.1514991886159
 21
669.4316641132335
 72
     1
 10
697.1514991886158
 20
669.4316641132335
 11
697.1514991886158
 21
648.4316641132335
 72
     1
 10
697.1514991886158
 20
648.4316641132336
 11
689.6514991886158
 21
648.4316641132336
 72
     1
 10
689.6514991886158
 20
648.4316641132336
 11
689.6514991886158
 21
641.4316641132336
 72
     1
 10
689.6514991886158
 20
641.4316641132336
 11
694.2514991886159
 21
641.4316641132336
 72
     1
 10
694.2514991886159
 20
641.4316641132336
 11
694.2514991886159
 21
643.4316641132337
 97
        0
 75
     0
 76
     1
 52
-90.0
 41
25.4
 77
     0
 78
     1
 53
315.0
 43
422.0718608022091
 44
439.9292716547836
 45
2.245064030267288
 46
2.245064030267288
 79
     0
 98
        1
 10
422.0718608022091
 20
439.9292716547836
  0
HATCH
  5
9AC
330
23
100
AcDbEntity
  8
Schraffur
 62
     7
100
AcDbHatch
 10
0.0
 20
0.0
 30
0.0
210
0.0
220
0.0
230
1.0
  2
ANSI31
 70
     0
 71
     0
 91
        1
 92
        1
 93
       14
 72
     3
 10
735.9514991886158
 20
491.4316641132336
 11
1.414213562373091
 21
-1.414213562373098
 40
1.0
 50
315.0000000000001
 51
405.0000000000001
 73
     1
 72
     1
 10
737.9514991886159
 20
491.4316641132336
 11
737.9514991886159
 21
542.0316641132335
 72
     3
 10
735.9514991886158
 20
542.0316641132335
 11
1.414213562373094
 21
1.414213562373095
 40
1.0
 50
314.9999999999999
 51
404.9999999999999
 73
     1
 72
     1
 10
735.9514991886158
 20
544.0316641132335
 11
735.1514991886158
 21
544.0316641132335
 72
     1
 10
735.1514991886158
 20
544.0316641132335
 11
735.1514991886158
 21
540.4316641132335
 72
     1
 10
735.1514991886158
 20
540.4316641132335
 11
732.7514991886158
 21
540.4316641132335
 72
     1
 10
732.7514991886159
 20
540.4316641132335
 11
732.7514991886159
 21
538.5816641132334
 72
     1
 10
732.7514991886159
 20
538.5816641132334
 11
735.151499188616
 21
538.5816641132334
 72
     1
 10
735.1514991886158
 20
538.5816641132334
 11
735.1514991886158
 21
494.8816641132335
 72
     1
 10
735.1514991886158
 20
494.8816641132335
 11
732.7514991886158
 21
494.8816641132335
 72
     1
 10
732.7514991886159
 20
494.8816641132335
 11
732.7514991886159
 21
493.0316641132335
 72
     1
 10
732.7514991886159
 20
493.0316641132335
 11
735.151499188616
 21
493.0316641132335
 72
     1
 10
735.1514991886158
 20
493.0316641132335
 11
735.1514991886158
 21
489.4316641132335
 72
     1
 10
735.1514991886158
 20
489.4316641132335
 11
735.9514991886157
 21
489.4316641132336
 97
        0
 75
     0
 76
     1
 52
0.0
 41
25.4
 77
     0
 78
     1
 53
45.0
 43
422.0718608022091
 44
439.9292716547836
 45
-2.245064030267288
 46
2.245064030267288
 79
     0
 98
        1
 10
422.0718608022091
 20
439.9292716547836
  0
HATCH
  5
9B8
330
23
100
AcDbEntity
  8
Schraffur
 62
     7
100
AcDbHatch
 10
0.0
 20
0.0
 30
0.0
210
0.0
220
0.0
230
1.0
  2
ANSI31
 70
     0
 71
     0
 91
        1
 92
        1
 93
       11
 72
     1
 10
794.6359963323678
 20
545.4316641132335
 11
794.6359963323678
 21
543.8316641132335
 72
     1
 10
794.6359963323678
 20
543.8316641132335
 11
796.5359963323678
 21
543.8316641132335
 72
     1
 10
796.5359963323678
 20
543.8316641132335
 11
796.5359963323678
 21
545.4316641132335
 72
     1
 10
796.5359963323678
 20
545.4316641132335
 11
836.6514991886159
 21
545.4316641132335
 72
     3
 10
836.6514991886159
 20
545.9316641132336
 11
0.3535533905932731
 21
-0.3535533905932744
 40
1.0
 50
315.0000000000001
 51
405.0000000000001
 73
     1
 72
     1
 10
837.1514991886158
 20
545.9316641132336
 11
837.1514991886158
 21
548.0316641132336
 72
     1
 10
837.1514991886158
 20
548.0316641132335
 11
831.9514991886158
 21
548.0316641132335
 72
     1
 10
831.9514991886158
 20
548.0316641132335
 11
831.9514991886157
 21
549.1316641132335
 72
     1
 10
831.9514991886158
 20
549.1316641132335
 11
789.6514991886159
 21
549.1316641132335
 72
     1
 10
789.6514991886158
 20
549.1316641132335
 11
789.6514991886158
 21
545.4316641132336
 72
     1
 10
789.6514991886158
 20
545.4316641132335
 11
794.6359963323677
 21
545.4316641132335
 97
        0
 75
     0
 76
     1
 52
-75.0
 41
25.4
 77
     0
 78
     1
 53
330.0
 43
422.0718608022091
 44
439.9292716547836
 45
1.5875
 46
2.749630657015592
 79
     0
 98
        1
 10
422.0718608022091
 20
439.9292716547836
  0
DIMENSION
  5
9B9
330
23
100
AcDbEntity
  8
Bemaßungen(DIN)
  6
Continuous
 62
     7
370
    25
100
AcDbDimension
  2
*D17
 10
777.1514991886158
 20
699.0997172064833
 30
0.0
 11
737.1514991886158
 21
699.0997172064833
 31
0.0
 70
   160
  1
<>
 42
80.0
  3
DIN-Stepp
100
AcDbAlignedDimension
 13
697.1514991886158
 23
669.4316641132335
 33
0.0
 14
777.1514991886158
 24
666.9316641132335
 34
0.0
 50
180.0
100
AcDbRotatedDimension
1001
ACAD
1000
DSTYLE
1002
{
1070
   140
1040
3.0
1070
   178
1070
     7
1070
   177
1070
     7
1070
   176
1070
     7
1070
    74
1070
     0
1070
   271
1070
     1
1070
   272
1070
     2
1070
    47
1040
0.0
1070
    48
1040
0.0
1002
}
  0
DIMENSION
  5
A86
330
23
100
AcDbEntity
  8
Bemaßungen(DIN)
  6
Continuous
 62
     7
370
    25
100
AcDbDimension
  2
*D18
 10
771.9514991886158
 20
682.1853655863961
 30
0.0
 11
740.5514991886159
 21
682.1853655863961
 31
0.0
 70
   160
  1
<>
 42
62.79999999999984
  3
DIN-Stepp
100
AcDbAlignedDimension
 13
709.1514991886159
 23
656.1816641132335
 33
0.0
 14
771.9514991886158
 24
656.1816641132335
 34
0.0
 50
180.0
100
AcDbRotatedDimension
1001
ACAD
1000
DSTYLE
1002
{
1070
   140
1040
3.0
1070
   178
1070
     7
1070
   177
1070
     7
1070
   176
1070
     7
1070
    74
1070
     0
1070
   271
1070
     1
1070
   272
1070
     2
1070
    47
1040
0.0
1070
    48
1040
0.0
1002
}
  0
DIMENSION
  5
B53
330
23
100
AcDbEntity
  8
Bemaßungen(DIN)
  6
Continuous
 62
     7
370
    25
100
AcDbDimension
  2
*D19
 10
765.733684401383
 20
492.9316641132335
 30
0.0
 11
765.733684401383
 21
519.1816641132336
 31
0.0
 70
   160
  1
<>
 42
52.5
  3
DIN-Stepp
100
AcDbAlignedDimension
 13
765.733684401383
 23
545.4316641132336
 33
0.0
 14
735.1514991886158
 24
492.9316641132335
 34
0.0
 50
90.0
100
AcDbRotatedDimension
1001
ACAD
1000
DSTYLE
1002
{
1070
   140
1040
3.0
1070
   178
1070
     7
1070
   177
1070
     7
1070
   176
1070
     7
1070
   279
1070
     1
1070
    74
1070
     0
1070
   271
1070
     1
1070
    75
1070
     1
1070
   272
1070
     2
1070
    47
1040
0.0
1070
    48
1040
0.0
1002
}
  0
DIMENSION
  5
C26
330
23
100
AcDbEntity
  8
Bemaßungen(DIN)
  6
Continuous
 62
     7
370
    25
100
AcDbDimension
  2
*D20
 10
697.1514991886158
 20
461.6568983592915
 30
0.0
 11
714.6514991886158
 21
461.6568983592915
 31
0.0
 70
   160
  1
<>
 42
38.0
  3
DIN-Stepp
100
AcDbAlignedDimension
 13
735.1514991886158
 23
489.4316641132335
 33
0.0
 14
697.1514991886158
 24
489.4316641132335
 34
0.0
 50
180.0
100
AcDbRotatedDimension
1001
ACAD
1000
DSTYLE
1002
{
1070
   140
1040
3.0
1070
   178
1070
     7
1070
   177
1070
     7
1070
   176
1070
     7
1070
    74
1070
     0
1070
   271
1070
     1
1070
   272
1070
     2
1070
    47
1040
0.0
1070
    48
1040
0.0
1002
}
  0
DIMENSION
  5
CF8
330
23
100
AcDbEntity
  8
Bemaßungen(DIN)
  6
Continuous
 62
     7
370
    25
100
AcDbDimension
  2
*D21
 10
735.1514991886158
 20
470.4434155068804
 30
0.0
 11
717.5514991886159
 21
470.4434155068804
 31
0.0
 70
   160
  1
<>
 42
35.19999999999993
  3
DIN-Stepp
100
AcDbAlignedDimension
 13
699.9514991886159
 23
492.9316641132335
 33
0.0
 14
735.1514991886158
 24
494.8816641132335
 34
0.0
 50
180.0
100
AcDbRotatedDimension
1001
ACAD
1000
DSTYLE
1002
{
1070
   140
1040
3.0
1070
   178
1070
     7
1070
   177
1070
     7
1070
   176
1070
     7
1070
   271
1070
     1
1070
   272
1070
     2
1070
    47
1040
0.0
1070
    48
1040
0.0
1002
}
  0
DIMENSION
  5
DB8
330
23
100
AcDbEntity
  8
Bemaßungen(DIN)
  6
Continuous
 62
     7
370
    25
100
AcDbDimension
  2
*D22
 10
639.0311538592825
 20
449.8602861249571
 30
0.0
 11
553.4885912750621
 21
449.8602861249571
 31
0.0
 70
   160
  1
<>
 42
171.0851251684408
  3
DIN-Stepp
100
AcDbAlignedDimension
 13
467.9460286908417
 23
511.6316641132335
 33
0.0
 14
639.0311538592825
 24
511.6316641132335
 34
0.0
 50
180.0
100
AcDbRotatedDimension
1001
ACAD
1000
DSTYLE
1002
{
1070
   140
1040
3.0
1070
   178
1070
     7
1070
   177
1070
     7
1070
   176
1070
     7
1070
    74
1070
     0
1070
   271
1070
     1
1070
   272
1070
     2
1070
    47
1040
0.0
1070
    48
1040
0.0
1002
}
  0
DIMENSION
  5
E85
330
23
100
AcDbEntity
  8
Bemaßungen(DIN)
  6
Continuous
 62
     7
370
    25
100
AcDbDimension
  2
*D23
 10
479.0311538592825
 20
459.2316641132335
 30
0.0
 11
553.4885912750621
 21
459.2316641132335
 31
0.0
 70
   160
  1
<>
 42
148.9148748315592
  3
DIN-Stepp
100
AcDbAlignedDimension
 13
627.9460286908418
 23
505.2316641132335
 33
0.0
 14
479.0311538592825
 24
505.2316641132335
 34
0.0
 50
180.0
100
AcDbRotatedDimension
1001
ACAD
1000
DSTYLE
1002
{
1070
   140
1040
3.0
1070
   178
1070
     7
1070
   177
1070
     7
1070
   176
1070
     7
1070
    74
1070
     0
1070
   271
1070
     1
1070
   272
1070
     2
1070
    47
1040
0.0
1070
    48
1040
0.0
1002
}
  0
DIMENSION
  5
F52
330
23
100
AcDbEntity
  8
Bemaßungen(DIN)
  6
Continuous
 62
     7
370
    25
100
AcDbDimension
  2
*D24
 10
511.4885912750621
 20
481.9711166022306
 30
0.0
 11
497.4885912750621
 21
481.9711166022306
 31
0.0
 70
   160
  1
<>
 42
28.0
  3
DIN-Stepp
100
AcDbAlignedDimension
 13
483.4885912750621
 23
486.9316641132336
 33
0.0
 14
511.4885912750621
 24
486.9316641132336
 34
0.0
 50
180.0
100
AcDbRotatedDimension
1001
ACAD
1000
DSTYLE
1002
{
1070
   140
1040
3.0
1070
   178
1070
     7
1070
   177
1070
     7
1070
   176
1070
     7
1070
   271
1070
     1
1070
   272
1070
     2
1070
    47
1040
0.0
1070
    48
1040
0.0
1002
}
  0
DIMENSION
  5
1012
330
23
100
AcDbEntity
  8
Bemaßungen(DIN)
  6
Continuous
 62
     7
370
    25
100
AcDbDimension
  2
*D25
 10
623.4885912750621
 20
474.0759550807235
 30
0.0
 11
553.4885912750621
 21
474.0759550807235
 31
0.0
 70
   160
  1
 5 x 28 
 42
140.0
  3
DIN-Stepp
100
AcDbAlignedDimension
 13
483.4885912750621
 23
486.9316641132336
 33
0.0
 14
623.4885912750621
 24
486.9316641132336
 34
0.0
 50
180.0
100
AcDbRotatedDimension
1001
ACAD
1000
DSTYLE
1002
{
1070
   140
1040
3.0
1070
   178
1070
     7
1070
   177
1070
     7
1070
   176
1070
     7
1070
   271
1070
     1
1070
   272
1070
     2
1070
    47
1040
0.0
1070
    48
1040
0.0
1002
}
  0
DIMENSION
  5
10CD
330
23
100
AcDbEntity
  8
Bemaßungen(DIN)
  6
Continuous
 62
     7
370
    25
100
AcDbDimension
  2
*D26
 10
430.2827746504167
 20
545.4316641132335
 30
0.0
 11
430.2827746504167
 21
607.4316641132335
 31
0.0
 70
   160
  1
<>
 42
124.0
  3
DIN-Stepp
100
AcDbAlignedDimension
 13
448.9885912750621
 23
669.4316641132335
 33
0.0
 14
448.9885912750621
 24
545.4316641132335
 34
0.0
 50
90.0
100
AcDbRotatedDimension
1001
ACAD
1000
DSTYLE
1002
{
1070
   140
1040
3.0
1070
   178
1070
     7
1070
   177
1070
     7
1070
   176
1070
     7
1070
   279
1070
     1
1070
    74
1070
     0
1070
   271
1070
     1
1070
   272
1070
     2
1070
    47
1040
0.0
1070
    48
1040
0.0
1002
}
  0
DIMENSION
  5
119A
330
23
100
AcDbEntity
  8
Bemaßungen(DIN)
  6
Continuous
 62
     7
370
    25
100
AcDbDimension
  2
*D27
 10
435.1413829891708
 20
547.9316641132335
 30
0.0
 11
435.1413829891708
 21
607.4316641132335
 31
0.0
 70
   160
  1
<>
 42
119.0
  3
DIN-Stepp
100
AcDbAlignedDimension
 13
449.488591275062
 23
666.9316641132335
 33
0.0
 14
449.488591275062
 24
547.9316641132335
 34
0.0
 50
270.0
100
AcDbRotatedDimension
1001
ACAD
1000
DSTYLE
1002
{
1070
   140
1040
3.0
1070
   178
1070
     7
1070
   177
1070
     7
1070
   176
1070
     7
1070
   279
1070
     1
1070
    74
1070
     0
1070
   271
1070
     1
1070
   272
1070
     2
1070
    47
1040
0.0
1070
    48
1040
0.0
1002
}
  0
DIMENSION
  5
1267
330
23
100
AcDbEntity
  8
Bemaßungen(DIN)
  6
Continuous
 62
     7
370
    25
100
AcDbDimension
  2
*D28
 10
441.5125669771891
 20
659.9316641132336
 30
0.0
 11
441.5125669771891
 21
607.4316641132336
 31
0.0
 70
   160
  1
<>
 42
105.0000000000001
  3
DIN-Stepp
100
AcDbAlignedDimension
 13
456.4885912750622
 23
554.9316641132334
 33
0.0
 14
456.4885912750621
 24
659.9316641132336
 34
0.0
 50
90.0
100
AcDbRotatedDimension
1001
ACAD
1000
DSTYLE
1002
{
1070
   140
1040
3.0
1070
   178
1070
     7
1070
   177
1070
     7
1070
   176
1070
     7
1070
   279
1070
     1
1070
    74
1070
     0
1070
   271
1070
     1
1070
   272
1070
     2
1070
    47
1040
0.0
1070
    48
1040
0.0
1002
}
  0
DIMENSION
  5
1334
330
23
100
AcDbEntity
  8
Bemaßungen(DIN)
  6
Continuous
 62
     7
370
    25
100
AcDbDimension
  2
*D29
 10
575.3848375883384
 20
638.4316641132336
 30
0.0
 11
575.3848375883384
 21
653.1816641132335
 31
0.0
 70
   160
  1
<>
 42
30.99999999999988
  3
DIN-Stepp
100
AcDbAlignedDimension
 13
575.3848375883384
 23
669.4316641132335
 33
0.0
 14
553.4885912750621
 24
638.4316641132336
 34
0.0
 50
90.0
100
AcDbRotatedDimension
1001
ACAD
1000
DSTYLE
1002
{
1070
   140
1040
3.0
1070
   178
1070
     7
1070
   177
1070
     7
1070
   176
1070
     7
1070
   279
1070
     1
1070
    74
1070
     0
1070
   271
1070
     1
1070
    75
1070
     1
1070
   272
1070
     2
1070
    47
1040
0.0
1070
    48
1040
0.0
1002
}
  0
DIMENSION
  5
1407
330
23
100
AcDbEntity
  8
Bemaßungen(DIN)
  6
Continuous
 62
     7
370
    25
100
AcDbDimension
  2
*D30
 10
595.7531555280994
 20
638.4316641132336
 30
0.0
 11
595.7531555280994
 21
571.8316641132335
 31
0.0
 70
   160
  1
<>
 42
133.2
  3
DIN-Stepp
100
AcDbAlignedDimension
 13
627.9460286908418
 23
505.2316641132335
 33
0.0
 14
553.4885912750621
 24
638.4316641132336
 34
0.0
 50
90.0
100
AcDbRotatedDimension
1001
ACAD
1000
DSTYLE
1002
{
1070
   140
1040
3.0
1070
   178
1070
     7
1070
   177
1070
     7
1070
   176
1070
     7
1070
   279
1070
     1
1070
    74
1070
     0
1070
   271
1070
     1
1070
   272
1070
     2
1070
    47
1040
0.0
1070
    48
1040
0.0
1002
}
  0
DIMENSION
  5
14D4
330
23
100
AcDbEntity
  8
Bemaßungen(DIN)
  6
Continuous
 62
     7
370
    25
100
AcDbDimension
  2
*D31
 10
624.0424859999896
 20
511.6316641132335
 30
0.0
 11
624.0424859999896
 21
575.0316641132335
 31
0.0
 70
   160
  1
<>
 42
126.8
  3
DIN-Stepp
100
AcDbAlignedDimension
 13
553.4885912750621
 23
638.4316641132336
 33
0.0
 14
639.0311538592825
 24
511.6316641132335
 34
0.0
 50
90.0
100
AcDbRotatedDimension
1001
ACAD
1000
DSTYLE
1002
{
1070
   140
1040
3.0
1070
   178
1070
     7
1070
   177
1070
     7
1070
   176
1070
     7
1070
   279
1070
     1
1070
    74
1070
     0
1070
   271
1070
     1
1070
   272
1070
     2
1070
    47
1040
0.0
1070
    48
1040
0.0
1002
}
  0
DIMENSION
  5
15A1
330
23
100
AcDbEntity
  8
Bemaßungen(DIN)
  6
Continuous
 62
     7
370
    25
100
AcDbDimension
  2
*D32
 10
666.9873564438094
 20
634.4316641132336
 30
0.0
 11
666.9873564438094
 21
652.9316641132336
 31
0.0
 70
   160
  1
<>
 42
34.99999999999988
  3
DIN-Stepp
100
AcDbAlignedDimension
 13
657.9885912750621
 23
669.4316641132335
 33
0.0
 14
649.9885912750621
 24
634.4316641132336
 34
0.0
 50
90.0
100
AcDbRotatedDimension
1001
ACAD
1000
DSTYLE
1002
{
1070
   140
1040
3.0
1070
   178
1070
     7
1070
   177
1070
     7
1070
   176
1070
     7
1070
   279
1070
     1
1070
    74
1070
     0
1070
   271
1070
     1
1070
   272
1070
     2
1070
    47
1040
0.0
1070
    48
1040
0.0
1002
}
  0
DIMENSION
  5
1678
330
23
100
AcDbEntity
  8
Bemaßungen(DIN)
  6
Continuous
 62
     7
370
    25
100
AcDbDimension
  2
*D33
 10
672.9506196235404
 20
578.4316641132336
 30
0.0
 11
672.9506196235404
 21
623.9316641132336
 31
0.0
 70
   160
  1
<>
 42
90.99999999999988
  3
DIN-Stepp
100
AcDbAlignedDimension
 13
657.9885912750621
 23
669.4316641132335
 33
0.0
 14
649.9885912750621
 24
578.4316641132336
 34
0.0
 50
90.0
100
AcDbRotatedDimension
1001
ACAD
1000
DSTYLE
1002
{
1070
   140
1040
3.0
1070
   178
1070
     7
1070
   177
1070
     7
1070
   176
1070
     7
1070
   279
1070
     1
1070
    74
1070
     0
1070
   271
1070
     1
1070
   272
1070
     2
1070
    47
1040
0.0
1070
    48
1040
0.0
1002
}
  0
DIMENSION
  5
1745
330
23
100
AcDbEntity
  8
Bemaßungen(DIN)
  6
Continuous
 62
     7
370
    25
100
AcDbDimension
  2
*D34
 10
680.1844225068497
 20
489.4316641132335
 30
0.0
 11
680.1844225068498
 21
579.4316641132335
 31
0.0
 70
   160
  1
<>
 42
179.9999999999998
  3
DIN-Stepp
100
AcDbAlignedDimension
 13
657.9885912750621
 23
669.4316641132335
 33
0.0
 14
657.9885912750621
 24
489.4316641132335
 34
0.0
 50
90.0
100
AcDbRotatedDimension
1001
ACAD
1000
DSTYLE
1002
{
1070
   140
1040
3.0
1070
   178
1070
     7
1070
   177
1070
     7
1070
   176
1070
     7
1070
   279
1070
     1
1070
    74
1070
     0
1070
   271
1070
     1
1070
   272
1070
     2
1070
    47
1040
0.0
1070
    48
1040
0.0
1002
}
  0
MTEXT
  5
1812
330
23
100
AcDbEntity
  8
Symbole(DIN)
 62
     7
100
AcDbMText
 10
762.1743055929599
 20
461.8918942808587
 30
0.0
 40
5.24999976158142
 41
26.49409055709838
 71
     1
 72
     1
  1
{MBR 20}
  7
STANDARD-DINGroßer Text
 73
     2
 44
1.0
  0
DIMENSION
  5
1813
330
23
100
AcDbEntity
  8
Bemaßungen(DIN)
  6
Continuous
 62
     7
370
    25
100
AcDbDimension
  2
*D35
 10
490.3396039479739
 20
500.1753089285329
 30
0.0
 11
522.2650650665983
 21
524.3656255058062
 31
0.0
 70
   163
  1
<>
 42
19.00000000000022
  3
DIN-Stepp
100
AcDbDiametricDimension
 15
504.6375786021507
 25
512.6880192979342
 35
0.0
 40
0.0
1001
ACAD
1000
DSTYLE
1002
{
1070
   140
1040
3.0
1070
   178
1070
     7
1070
   176
1070
     7
1070
    73
1070
     1
1070
   289
1070
     2
1070
   271
1070
     1
1070
   272
1070
     2
1070
    47
1040
0.0
1070
    48
1040
0.0
1002
}
  0
DIMENSION
  5
18BC
330
23
100
AcDbEntity
  8
Bemaßungen(DIN)
  6
Continuous
 62
     7
370
    25
100
AcDbDimension
  2
*D36
 10
771.9514991886158
 20
692.8377839668473
 30
0.0
 11
736.4514991886159
 21
692.8377839668473
 31
0.0
 70
   160
  1
<>
 42
71.99999999999988
  3
DIN-Stepp
100
AcDbAlignedDimension
 13
699.9514991886159
 23
656.1816641132335
 33
0.0
 14
771.9514991886158
 24
656.1816641132335
 34
0.0
 50
180.0
100
AcDbRotatedDimension
1001
ACAD
1000
DSTYLE
1002
{
1070
   140
1040
3.0
1070
   178
1070
     7
1070
   177
1070
     7
1070
   176
1070
     7
1070
    74
1070
     0
1070
   271
1070
     1
1070
   272
1070
     2
1070
    47
1040
0.0
1070
    48
1040
0.0
1002
}
  0
DIMENSION
  5
1989
330
23
100
AcDbEntity
  8
Bemaßungen(DIN)
  6
Continuous
 62
     7
370
    25
100
AcDbDimension
  2
*D37
 10
697.1514991886158
 20
703.4316641132335
 30
0.0
 11
681.7248605854054
 21
703.4316641132335
 31
0.0
 70
   160
  1
<>
 42
7.5
  3
DIN-Stepp
100
AcDbAlignedDimension
 13
689.6514991886158
 23
648.4316641132336
 33
0.0
 14
697.1514991886158
 24
669.4316641132335
 34
0.0
 50
180.0
100
AcDbRotatedDimension
1001
ACAD
1000
DSTYLE
1002
{
1070
   140
1040
3.0
1070
   178
1070
     7
1070
   177
1070
     7
1070
   176
1070
     7
1070
    74
1070
     0
1070
   271
1070
     1
1070
   272
1070
     2
1070
    47
1040
0.0
1070
    48
1040
0.0
1002
}
  0
MTEXT
  5
2A95
330
23
100
AcDbEntity
  8
BEMAßUNG-025
 62
   122
100
AcDbMText
 10
287.1182105790854
 20
571.5719532682321
 30
0.0
 40
3.5
 41
0.0
 71
     1
 72
     1
  1

 73
     1
 44
1.0
  0
MTEXT
  5
2A96
330
23
100
AcDbEntity
  8
BEMAßUNG-025
 62
   122
100
AcDbMText
 10
447.7550679144651
 20
554.7637029601899
 30
0.0
 40
3.5
 41
0.0
 71
     1
 72
     1
  1

 73
     1
 44
1.0
  0
LWPOLYLINE
  5
2A97
330
23
100
AcDbEntity
  8
XKANTEN-07
 62
     7
100
AcDbPolyline
 90
        4
 70
     1
 43
0.0
 10
718.7679608363651
 20
419.2964087502031
 10
901.6479608363649
 20
419.2964087502031
 10
901.6479608363649
 20
364.3064087502031
 10
718.7679608363651
 20
364.3064087502031
  0
LINE
  5
2A98
330
23
100
AcDbEntity
  8
XKANTEN-025
 62
     7
100
AcDbLine
 10
718.7679608363651
 20
381.226408750203
 30
0.0
 11
772.107960836365
 21
381.226408750203
 31
0.0
  0
LINE
  5
2A99
330
23
100
AcDbEntity
  8
XKANTEN-025
 62
     7
100
AcDbLine
 10
718.7679608363651
 20
376.996408750203
 30
0.0
 11
772.107960836365
 21
376.996408750203
 31
0.0
  0
LINE
  5
2A9A
330
23
100
AcDbEntity
  8
XKANTEN-025
 62
     7
100
AcDbLine
 10
718.7679608363651
 20
372.7664087502031
 30
0.0
 11
772.107960836365
 21
372.7664087502031
 31
0.0
  0
TEXT
  5
2A9B
330
23
100
AcDbEntity
  8
SCHRIFT-025
 62
     7
100
AcDbText
 10
752.747788424514
 20
365.1528652943236
 30
0.0
 40
2.5
  1
Datum
100
AcDbText
  0
LINE
  5
2A9C
330
23
100
AcDbEntity
  8
XKANTEN-07
 62
     7
100
AcDbLine
 10
718.7679608363651
 20
402.3764087502031
 30
0.0
 11
901.6479608363649
 21
402.3764087502031
 31
0.0
  0
LINE
  5
2A9D
330
23
100
AcDbEntity
  8
XKANTEN-025
 62
     7
100
AcDbLine
 10
718.7679608363651
 20
398.1464087502031
 30
0.0
 11
815.2879608363651
 21
398.1464087502031
 31
0.0
  0
LINE
  5
2A9E
330
23
100
AcDbEntity
  8
XKANTEN-025
 62
     7
100
AcDbLine
 10
718.7679608363651
 20
393.9164087502031
 30
0.0
 11
815.2879608363651
 21
393.9164087502031
 31
0.0
  0
LINE
  5
2A9F
330
23
100
AcDbEntity
  8
XKANTEN-025
 62
     7
100
AcDbLine
 10
718.7679608363651
 20
389.6864087502031
 30
0.0
 11
815.2879608363651
 21
389.6864087502031
 31
0.0
  0
LINE
  5
2AA0
330
23
100
AcDbEntity
  8
XKANTEN-025
 62
     7
100
AcDbLine
 10
718.7679608363651
 20
385.456408750203
 30
0.0
 11
815.2879608363651
 21
385.456408750203
 31
0.0
  0
LINE
  5
2AA1
330
23
100
AcDbEntity
  8
XKANTEN-025
 62
     7
100
AcDbLine
 10
718.7679608363651
 20
368.5364087502031
 30
0.0
 11
901.6479608363649
 21
368.5364087502031
 31
0.0
  0
LINE
  5
2AA2
330
23
100
AcDbEntity
  8
XKANTEN-025
 62
     7
100
AcDbLine
 10
726.387960836365
 20
402.3764087502031
 30
0.0
 11
726.387960836365
 21
364.3064087502031
 31
0.0
  0
LINE
  5
2AA3
330
23
100
AcDbEntity
  8
XKANTEN-025
 62
     7
100
AcDbLine
 10
751.787960836365
 20
402.3764087502031
 30
0.0
 11
751.787960836365
 21
364.3064087502031
 31
0.0
  0
TEXT
  5
2AA4
330
23
100
AcDbEntity
  8
SCHRIFT-025
 62
     7
100
AcDbText
 10
719.3499375343683
 20
365.1528652943236
 30
0.0
 40
2.5
  1
Zust.
 41
0.9
100
AcDbText
  0
TEXT
  5
2AA5
330
23
100
AcDbEntity
  8
SCHRIFT-025
 62
     7
100
AcDbText
 10
728.3577884245142
 20
365.1528652943236
 30
0.0
 40
2.5
  1
Änderung
100
AcDbText
  0
LINE
  5
2AA6
330
23
100
AcDbEntity
  8
XKANTEN-025
 62
     7
100
AcDbLine
 10
815.2879608363651
 20
412.9600924245489
 30
0.0
 11
901.6479608363649
 21
412.9600924245489
 31
0.0
  0
TEXT
  5
2AA7
330
23
100
AcDbEntity
  8
SCHRIFT-025
 62
     7
100
AcDbText
 10
874.0929608363648
 20
414.9948709722773
 30
0.0
 40
2.5
  1
(Gewicht)
100
AcDbText
  0
LINE
  5
2AA8
330
23
100
AcDbEntity
  8
XKANTEN-07
 62
     7
100
AcDbLine
 10
772.107960836365
 20
381.226408750203
 30
0.0
 11
901.6479608363649
 21
381.226408750203
 31
0.0
  0
LINE
  5
2AA9
330
23
100
AcDbEntity
  8
XKANTEN-07
 62
     7
100
AcDbLine
 10
772.107960836365
 20
419.2964087502031
 30
0.0
 11
772.107960836365
 21
364.3064087502031
 31
0.0
  0
LINE
  5
2AAA
330
23
100
AcDbEntity
  8
XKANTEN-025
 62
     7
100
AcDbLine
 10
764.4879608363648
 20
402.3764087502031
 30
0.0
 11
764.4879608363648
 21
364.3064087502031
 31
0.0
  0
LINE
  5
2AAB
330
23
100
AcDbEntity
  8
XKANTEN-07
 62
     7
100
AcDbLine
 10
815.2879608363651
 20
419.2964087502031
 30
0.0
 11
815.2879608363651
 21
364.3064087502031
 31
0.0
  0
TEXT
  5
2AAC
330
23
100
AcDbEntity
  8
SCHRIFT-025
 62
     7
100
AcDbText
 10
817.997960836365
 20
365.1476553575074
 30
0.0
 40
2.5
  1
(Ers.f.:)
 41
0.9
100
AcDbText
  0
TEXT
  5
2AAD
330
23
100
AcDbEntity
  8
SCHRIFT-025
 62
     7
100
AcDbText
 10
764.7982762119331
 20
365.1528652943236
 30
0.0
 40
2.5
  1
Name
 41
0.9
100
AcDbText
  0
TEXT
  5
2AAE
330
23
100
AcDbEntity
  8
SCHRIFT-025
 62
     7
100
AcDbText
 10
774.817960836365
 20
365.1476553575074
 30
0.0
 40
2.5
  1
(Urspr.:)
 41
0.9
100
AcDbText
  0
TEXT
  5
2AAF
330
23
100
AcDbEntity
  8
SCHRIFT-025
 62
     7
100
AcDbText
 10
860.1008691457527
 20
365.1476553575074
 30
0.0
 40
2.5
  1
(Ers.d.:)
 41
0.9
100
AcDbText
  0
LINE
  5
2AB0
330
23
100
AcDbEntity
  8
XKANTEN-025
 62
     7
100
AcDbLine
 10
858.4679608363648
 20
364.3064087502031
 30
0.0
 11
858.4679608363648
 21
368.5364087502031
 31
0.0
  0
TEXT
  5
2AB1
330
23
100
AcDbEntity
  8
SCHRIFT-025
 62
     7
100
AcDbText
 10
817.0686785892304
 20
415.2681129838904
 30
0.0
 40
2.5
  1
Maßstab
100
AcDbText
  0
TEXT
  5
2AB2
330
23
100
AcDbEntity
  8
SCHRIFT-025
 62
     7
100
AcDbText
 10
817.0947802003166
 20
398.893070752124
 30
0.0
 40
2.5
  1
(Benennung)
100
AcDbText
  0
LINE
  5
2AB3
330
23
100
AcDbEntity
  8
XKANTEN-025
 62
     7
100
AcDbLine
 10
797.5079608363649
 20
419.2964087502031
 30
0.0
 11
797.5079608363649
 21
381.226408750203
 31
0.0
  0
TEXT
  5
2AB4
330
23
100
AcDbEntity
  8
SCHRIFT-025
 62
     7
100
AcDbText
 10
774.817960836365
 20
415.496408750203
 30
0.0
 40
2.5
  1
(Zul.Abw.)
100
AcDbText
  0
TEXT
  5
2AB5
330
23
100
AcDbEntity
  8
SCHRIFT-025
 62
     7
100
AcDbText
 10
785.3232091913674
 20
399.0778598414824
 30
0.0
 40
2.5
  1
Datum
100
AcDbText
  0
LINE
  5
2AB6
330
23
100
AcDbEntity
  8
XKANTEN-025
 62
     7
100
AcDbLine
 10
782.267960836365
 20
402.3764087502031
 30
0.0
 11
782.267960836365
 21
385.456408750203
 31
0.0
  0
TEXT
  5
2AB7
330
23
100
AcDbEntity
  8
SCHRIFT-025
 62
     7
100
AcDbText
 10
773.219609402221
 20
394.9224567784556
 30
0.0
 40
2.5
  1
Bearb.
 41
0.9
100
AcDbText
  0
TEXT
  5
2AB8
330
23
100
AcDbEntity
  8
SCHRIFT-025
 62
     7
100
AcDbText
 10
773.1397723828315
 20
386.2558192500121
 30
0.0
 40
2.5
  1
Norm
100
AcDbText
  0
TEXT
  5
2AB9
330
23
100
AcDbEntity
  8
SCHRIFT-025
 62
     7
100
AcDbText
 10
773.0527919763126
 20
390.6800064430147
 30
0.0
 40
2.5
  1
Gepr.
100
AcDbText
  0
TEXT
  5
2ABA
330
23
100
AcDbEntity
  8
SCHRIFT-025
 62
     7
100
AcDbText
 10
798.3067059820209
 20
415.496408750203
 30
0.0
 40
2.5
  1
(Oberfläche)
 41
0.9
100
AcDbText
  0
TEXT
  5
2ABB
330
23
100
AcDbEntity
  8
SCHRIFT-025
 62
     7
100
AcDbText
 10
802.2427962649871
 20
399.0736600894515
 30
0.0
 40
2.5
  1
Name
100
AcDbText
  0
LINE
  5
2ABC
330
23
100
AcDbEntity
  8
XKANTEN-025
 62
     7
100
AcDbLine
 10
872.1929608363648
 20
419.2964087502031
 30
0.0
 11
872.1929608363648
 21
412.9600924245489
 31
0.0
  0
LINE
  5
2ABD
330
23
100
AcDbEntity
  8
XKANTEN-07
 62
     7
100
AcDbLine
 10
888.9479608363648
 20
368.5364087502031
 30
0.0
 11
888.9479608363648
 21
381.226408750203
 31
0.0
  0
LINE
  5
2ABE
330
23
100
AcDbEntity
  8
XKANTEN-025
 62
     7
100
AcDbLine
 10
888.9479608363648
 20
372.7664087502031
 30
0.0
 11
901.6479608363649
 21
372.7664087502031
 31
0.0
  0
TEXT
  5
2ABF
330
23
100
AcDbEntity
  8
SCHRIFT-025
 62
     7
100
AcDbText
 10
897.721511286485
 20
369.3048561175368
 30
0.0
 40
2.5
  1
Bl.
100
AcDbText
  0
TEXT
  5
2AC0
330
23
100
AcDbEntity
  8
SCHRIFT-025
 62
     7
100
AcDbText
 10
889.8979608363649
 20
377.7158445928514
 30
0.0
 40
2.5
  1
Blatt
100
AcDbText
  0
MTEXT
  5
2AC1
330
23
100
AcDbEntity
  8
L6
 62
     7
100
AcDbMText
 10
719.4705823742006
 20
418.4837391962471
 30
0.0
 40
5.0
 41
49.2675
 71
     1
 72
     5
  1
MULTIBOX GmbH
 73
     1
 44
1.0
  0
MTEXT
  5
2AC2
330
23
100
AcDbEntity
  8
L6
 62
     7
100
AcDbMText
 10
824.4144384231562
 20
396.6631182576532
 30
0.0
 40
3.5
 41
47.0645
 71
     1
 72
     5
  1
{\fArial|b0|i0|c0|p0;MBR 20}
 73
     1
 44
1.0
  0
MTEXT
  5
2AC3
330
23
100
AcDbEntity
  8
L6
 62
     7
100
AcDbMText
 10
782.7573341551287
 20
397.8642531391312
 30
0.0
 40
2.5
 41
13.6187
 71
     1
 72
     5
  1
18.05.05
 73
     1
 44
1.0
  0
MTEXT
  5
2AC4
330
23
100
AcDbEntity
  8
L6
 62
     7
100
AcDbMText
 10
797.9781996774709
 20
397.6640647772337
 30
0.0
 40
2.5
 41
14.0192
 71
     1
 72
     5
  1
Otto
 73
     1
 44
1.0
  0
LINE
  5
2AC5
330
23
100
AcDbEntity
  8
XKANTEN-035
 62
     7
100
AcDbLine
 10
332.6479608363649
 20
414.3064087502031
 30
0.0
 11
337.6479608363649
 21
414.3064087502031
 31
0.0
  0
HATCH
  5
2AC6
330
23
100
AcDbEntity
  8
XKANTEN-025
 62
     7
100
AcDbHatch
 10
0.0
 20
0.0
 30
0.0
210
0.0
220
0.0
230
1.0
  2
SOLID
 70
     1
 71
     0
 91
        1
 92
        7
 72
     0
 73
     1
 93
        7
 10
317.6479608363649
 20
354.3064087502031
 10
322.6479608363649
 20
354.3064087502031
 10
327.6479608363649
 20
354.3064087502031
 10
327.6479608363649
 20
359.306408750203
 10
322.6479608363649
 20
359.306408750203
 10
322.6479608363649
 20
364.3064087502031
 10
317.6479608363649
 20
364.3064087502031
 97
        0
 75
     0
 76
     1
 47
0.2034819829852284
 98
        1
 10
319.4574644895014
 20
361.8214471339385
  0
TEXT
  5
2AC7
330
23
100
AcDbEntity
  8
SCHRIFT-035
 62
     7
100
AcDbText
 10
333.3824424189025
 20
387.5564087502031
 30
0.0
 40
3.5
  1
H
 72
     4
 11
335.1479608363649
 21
389.3064087502031
 31
0.0
100
AcDbText
  0
TEXT
  5
2AC8
330
23
100
AcDbEntity
  8
SCHRIFT-035
 62
     7
100
AcDbText
 10
347.0775020743067
 20
360.0492464036819
 30
0.0
 40
3.5
  1
1
 72
     4
 11
348.4371541889042
 21
361.806408750203
 31
0.0
100
AcDbText
  0
LINE
  5
2AC9
330
23
100
AcDbEntity
  8
XKANTEN-035
 62
     7
100
AcDbLine
 10
364.6479608363649
 20
359.306408750203
 30
0.0
 11
364.6479608363649
 21
364.3064087502031
 31
0.0
  0
TEXT
  5
2ACA
330
23
100
AcDbEntity
  8
SCHRIFT-035
 62
     7
100
AcDbText
 10
388.2883087217674
 20
360.0492464036819
 30
0.0
 40
3.5
  1
2
 72
     4
 11
389.647960836365
 21
361.806408750203
 31
0.0
100
AcDbText
  0
LINE
  5
2ACB
330
23
100
AcDbEntity
  8
XKANTEN-035
 62
     7
100
AcDbLine
 10
414.6479608363649
 20
359.306408750203
 30
0.0
 11
414.6479608363649
 21
364.3064087502031
 31
0.0
  0
LINE
  5
2ACC
330
23
100
AcDbEntity
  8
XKANTEN-07
 62
     7
100
AcDbLine
 10
332.6479608363649
 20
564.3064087502031
 30
0.0
 11
347.6479608363649
 21
564.3064087502031
 31
0.0
  0
LINE
  5
2ACD
330
23
100
AcDbEntity
  8
XKANTEN-035
 62
     7
100
AcDbLine
 10
332.6479608363649
 20
464.3064087502031
 30
0.0
 11
337.6479608363649
 21
464.3064087502031
 31
0.0
  0
LINE
  5
2ACE
330
23
100
AcDbEntity
  8
XKANTEN-035
 62
     7
100
AcDbLine
 10
332.6479608363649
 20
514.3064087502031
 30
0.0
 11
337.6479608363649
 21
514.3064087502031
 31
0.0
  0
LINE
  5
2ACF
330
23
100
AcDbEntity
  8
XKANTEN-035
 62
     7
100
AcDbLine
 10
332.6479608363649
 20
564.3064087502031
 30
0.0
 11
337.6479608363649
 21
564.3064087502031
 31
0.0
  0
TEXT
  5
2AD0
330
23
100
AcDbEntity
  8
SCHRIFT-035
 62
     7
100
AcDbText
 10
333.2463578350007
 20
437.5564087502031
 30
0.0
 40
3.5
  1
G
 72
     4
 11
335.1479608363649
 21
439.3064087502031
 31
0.0
100
AcDbText
  0
TEXT
  5
2AD1
330
23
100
AcDbEntity
  8
SCHRIFT-035
 62
     7
100
AcDbText
 10
333.654611586706
 20
487.5564087502031
 30
0.0
 40
3.5
  1
F
 72
     4
 11
335.1479608363649
 21
489.3064087502031
 31
0.0
100
AcDbText
  0
TEXT
  5
2AD2
330
23
100
AcDbEntity
  8
SCHRIFT-035
 62
     7
100
AcDbText
 10
333.517333278384
 20
537.5564087502031
 30
0.0
 40
3.5
  1
E
 72
     4
 11
335.1479608363649
 21
539.3064087502031
 31
0.0
100
AcDbText
  0
TEXT
  5
2AD3
330
23
100
AcDbEntity
  8
SCHRIFT-035
 62
     7
100
AcDbText
 10
438.2883087217674
 20
360.0802832386069
 30
0.0
 40
3.5
  1
3
 72
     4
 11
439.6479608363649
 21
361.806408750203
 31
0.0
100
AcDbText
  0
LINE
  5
2AD4
330
23
100
AcDbEntity
  8
XKANTEN-035
 62
     7
100
AcDbLine
 10
464.6479608363649
 20
359.306408750203
 30
0.0
 11
464.6479608363649
 21
364.3064087502031
 31
0.0
  0
TEXT
  5
2AD5
330
23
100
AcDbEntity
  8
SCHRIFT-035
 62
     7
100
AcDbText
 10
488.2883087217674
 20
360.0564087502031
 30
0.0
 40
3.5
  1
4
 72
     4
 11
489.6479608363649
 21
361.806408750203
 31
0.0
100
AcDbText
  0
LINE
  5
2AD6
330
23
100
AcDbEntity
  8
XKANTEN-035
 62
     7
100
AcDbLine
 10
514.6479608363649
 20
359.306408750203
 30
0.0
 11
514.6479608363649
 21
364.3064087502031
 31
0.0
  0
LINE
  5
2AD7
330
23
100
AcDbEntity
  8
XKANTEN-07
 62
     7
100
AcDbLine
 10
614.6479608363649
 20
359.306408750203
 30
0.0
 11
614.6479608363649
 21
374.306408750203
 31
0.0
  0
TEXT
  5
2AD8
330
23
100
AcDbEntity
  8
SCHRIFT-035
 62
     7
100
AcDbText
 10
538.2883087217674
 20
360.1101263491116
 30
0.0
 40
3.5
  1
5
 72
     4
 11
539.6479608363649
 21
361.806408750203
 31
0.0
100
AcDbText
  0
LINE
  5
2AD9
330
23
100
AcDbEntity
  8
XKANTEN-035
 62
     7
100
AcDbLine
 10
564.6479608363649
 20
359.306408750203
 30
0.0
 11
564.6479608363649
 21
364.3064087502031
 31
0.0
  0
TEXT
  5
2ADA
330
23
100
AcDbEntity
  8
SCHRIFT-035
 62
     7
100
AcDbText
 10
588.2883087217674
 20
360.0790895141867
 30
0.0
 40
3.5
  1
6
 72
     4
 11
589.6479608363649
 21
361.806408750203
 31
0.0
100
AcDbText
  0
LINE
  5
2ADB
330
23
100
AcDbEntity
  8
XKANTEN-035
 62
     7
100
AcDbLine
 10
614.6479608363649
 20
359.306408750203
 30
0.0
 11
614.6479608363649
 21
364.3064087502031
 31
0.0
  0
LINE
  5
2ADC
330
23
100
AcDbEntity
  8
XKANTEN-035
 62
     7
100
AcDbLine
 10
332.6479608363649
 20
664.3064087502031
 30
0.0
 11
337.6479608363649
 21
664.3064087502031
 31
0.0
  0
LINE
  5
2ADD
330
23
100
AcDbEntity
  8
XKANTEN-035
 62
     7
100
AcDbLine
 10
337.6479608363649
 20
614.3064087502031
 30
0.0
 11
332.647960836365
 21
614.3064087502031
 31
0.0
  0
TEXT
  5
2ADE
330
23
100
AcDbEntity
  8
SCHRIFT-035
 62
     7
100
AcDbText
 10
333.3824424189025
 20
587.5564087502031
 30
0.0
 40
3.5
  1
D
 72
     4
 11
335.1479608363649
 21
589.3064087502031
 31
0.0
100
AcDbText
  0
TEXT
  5
2ADF
330
23
100
AcDbEntity
  8
SCHRIFT-035
 62
     7
100
AcDbText
 10
333.3824424189025
 20
637.5564087502031
 30
0.0
 40
3.5
  1
C
 72
     4
 11
335.1479608363649
 21
639.3064087502031
 31
0.0
100
AcDbText
  0
TEXT
  5
2AE0
330
23
100
AcDbEntity
  8
SCHRIFT-035
 62
     7
100
AcDbText
 10
333.517333278384
 20
687.5564087502031
 30
0.0
 40
3.5
  1
B
 72
     4
 11
335.1479608363649
 21
689.3064087502031
 31
0.0
100
AcDbText
  0
TEXT
  5
2AE1
330
23
100
AcDbEntity
  8
SCHRIFT-035
 62
     7
100
AcDbText
 10
333.517333278384
 20
737.5564087502031
 30
0.0
 40
3.5
  1
A
 72
     4
 11
335.1479608363649
 21
739.3064087502031
 31
0.0
100
AcDbText
  0
LINE
  5
2AE2
330
23
100
AcDbEntity
  8
XKANTEN-035
 62
     7
100
AcDbLine
 10
332.6479608363649
 20
714.3064087502031
 30
0.0
 11
337.6479608363649
 21
714.3064087502031
 31
0.0
  0
HATCH
  5
2AE3
330
23
100
AcDbEntity
  8
XKANTEN-025
 62
     7
100
AcDbHatch
 10
0.0
 20
0.0
 30
0.0
210
0.0
220
0.0
230
1.0
  2
SOLID
 70
     1
 71
     1
 91
        1
 92
        7
 72
     0
 73
     1
 93
        6
 10
317.6479608363649
 20
764.3064087502032
 10
322.6479608363649
 20
764.306408750203
 10
322.6479608363649
 20
769.3064087502031
 10
327.6479608363649
 20
769.306408750203
 10
327.6479608363649
 20
774.3064087502032
 10
317.6479608363649
 20
774.3064087502032
 97
        2
330
2AE5
330
2AE4
 75
     0
 76
     1
 47
0.2034819829852284
 98
        1
 10
319.4574644895012
 20
766.7913703664677
  0
LWPOLYLINE
  5
2AE4
102
{ACAD_REACTORS
330
2AE3
102
}
330
23
100
AcDbEntity
  8
XKANTEN-025
 62
     7
100
AcDbPolyline
 90
        5
 70
     0
 43
0.0
 10
317.6479608363649
 20
769.3064087502031
 10
317.6479608363649
 20
774.306408750203
 10
327.6479608363649
 20
774.306408750203
 10
327.6479608363649
 20
769.3064087502031
 10
322.6479608363649
 20
769.3064087502031
  0
LWPOLYLINE
  5
2AE5
102
{ACAD_REACTORS
330
2AE3
102
}
330
23
100
AcDbEntity
  8
XKANTEN-025
 62
     7
100
AcDbPolyline
 90
        5
 70
     0
 43
0.0
 10
322.6479608363649
 20
769.3064087502031
 10
322.6479608363649
 20
764.3064087502031
 10
317.6479608363649
 20
764.3064087502031
 10
317.6479608363649
 20
774.306408750203
 10
322.6479608363649
 20
774.306408750203
  0
TEXT
  5
2AE6
330
23
100
AcDbEntity
  8
SCHRIFT-035
 62
     7
100
AcDbText
 10
348.1824382149466
 20
765.049246403682
 30
0.0
 40
3.5
  1
1
 72
     4
 11
349.5420903295441
 21
766.8064087502031
 31
0.0
100
AcDbText
  0
LINE
  5
2AE7
330
23
100
AcDbEntity
  8
XKANTEN-035
 62
     7
100
AcDbLine
 10
364.6479608363649
 20
764.3064087502031
 30
0.0
 11
364.6479608363649
 21
769.3064087502031
 31
0.0
  0
TEXT
  5
2AE8
330
23
100
AcDbEntity
  8
SCHRIFT-035
 62
     7
100
AcDbText
 10
388.2883087217674
 20
765.049246403682
 30
0.0
 40
3.5
  1
2
 72
     4
 11
389.647960836365
 21
766.8064087502031
 31
0.0
100
AcDbText
  0
LINE
  5
2AE9
330
23
100
AcDbEntity
  8
XKANTEN-035
 62
     7
100
AcDbLine
 10
414.6479608363649
 20
764.3064087502031
 30
0.0
 11
414.6479608363649
 21
769.3064087502031
 31
0.0
  0
TEXT
  5
2AEA
330
23
100
AcDbEntity
  8
SCHRIFT-035
 62
     7
100
AcDbText
 10
438.2883087217674
 20
765.0802832386069
 30
0.0
 40
3.5
  1
3
 72
     4
 11
439.6479608363649
 21
766.8064087502031
 31
0.0
100
AcDbText
  0
LINE
  5
2AEB
330
23
100
AcDbEntity
  8
XKANTEN-035
 62
     7
100
AcDbLine
 10
464.6479608363649
 20
764.3064087502031
 30
0.0
 11
464.6479608363649
 21
769.3064087502031
 31
0.0
  0
TEXT
  5
2AEC
330
23
100
AcDbEntity
  8
SCHRIFT-035
 62
     7
100
AcDbText
 10
488.2883087217674
 20
765.0564087502031
 30
0.0
 40
3.5
  1
4
 72
     4
 11
489.6479608363649
 21
766.8064087502031
 31
0.0
100
AcDbText
  0
LINE
  5
2AED
330
23
100
AcDbEntity
  8
XKANTEN-035
 62
     7
100
AcDbLine
 10
514.6479608363649
 20
764.3064087502031
 30
0.0
 11
514.6479608363649
 21
769.3064087502031
 31
0.0
  0
LINE
  5
2AEE
330
23
100
AcDbEntity
  8
XKANTEN-07
 62
     7
100
AcDbLine
 10
614.6479608363649
 20
769.3064087502031
 30
0.0
 11
614.6479608363649
 21
754.3064087502031
 31
0.0
  0
TEXT
  5
2AEF
330
23
100
AcDbEntity
  8
SCHRIFT-035
 62
     7
100
AcDbText
 10
538.2883087217674
 20
765.1101263491117
 30
0.0
 40
3.5
  1
5
 72
     4
 11
539.6479608363649
 21
766.8064087502031
 31
0.0
100
AcDbText
  0
LINE
  5
2AF0
330
23
100
AcDbEntity
  8
XKANTEN-035
 62
     7
100
AcDbLine
 10
564.6479608363649
 20
764.3064087502031
 30
0.0
 11
564.6479608363649
 21
769.3064087502031
 31
0.0
  0
TEXT
  5
2AF1
330
23
100
AcDbEntity
  8
SCHRIFT-035
 62
     7
100
AcDbText
 10
588.2883087217674
 20
765.0790895141867
 30
0.0
 40
3.5
  1
6
 72
     4
 11
589.6479608363649
 21
766.8064087502031
 31
0.0
100
AcDbText
  0
LINE
  5
2AF2
330
23
100
AcDbEntity
  8
XKANTEN-035
 62
     7
100
AcDbLine
 10
614.6479608363649
 20
764.3064087502031
 30
0.0
 11
614.6479608363649
 21
769.3064087502031
 31
0.0
  0
TEXT
  5
2AF3
330
23
100
AcDbEntity
  8
SCHRIFT-035
 62
     7
100
AcDbText
 10
638.2883087217674
 20
360.0790895141867
 30
0.0
 40
3.5
  1
7
 72
     4
 11
639.6479608363649
 21
361.806408750203
 31
0.0
100
AcDbText
  0
LINE
  5
2AF4
330
23
100
AcDbEntity
  8
XKANTEN-035
 62
     7
100
AcDbLine
 10
664.6479608363649
 20
359.306408750203
 30
0.0
 11
664.6479608363649
 21
364.3064087502031
 31
0.0
  0
TEXT
  5
2AF5
330
23
100
AcDbEntity
  8
SCHRIFT-035
 62
     7
100
AcDbText
 10
688.2883087217674
 20
360.0790895141867
 30
0.0
 40
3.5
  1
8
 72
     4
 11
689.6479608363649
 21
361.806408750203
 31
0.0
100
AcDbText
  0
TEXT
  5
2AF6
330
23
100
AcDbEntity
  8
SCHRIFT-035
 62
     7
100
AcDbText
 10
638.2883087217674
 20
765.0790895141867
 30
0.0
 40
3.5
  1
7
 72
     4
 11
639.6479608363649
 21
766.8064087502031
 31
0.0
100
AcDbText
  0
LINE
  5
2AF7
330
23
100
AcDbEntity
  8
XKANTEN-035
 62
     7
100
AcDbLine
 10
664.6479608363649
 20
764.3064087502031
 30
0.0
 11
664.6479608363649
 21
769.3064087502031
 31
0.0
  0
TEXT
  5
2AF8
330
23
100
AcDbEntity
  8
SCHRIFT-035
 62
     7
100
AcDbText
 10
688.2883087217674
 20
765.0790895141867
 30
0.0
 40
3.5
  1
8
 72
     4
 11
689.6479608363649
 21
766.8064087502031
 31
0.0
100
AcDbText
  0
LINE
  5
2AF9
330
23
100
AcDbEntity
  8
XKANTEN-07
 62
     7
100
AcDbLine
 10
906.647960836365
 20
564.3064087502031
 30
0.0
 11
891.6479608363649
 21
564.3064087502031
 31
0.0
  0
TEXT
  5
2AFA
330
23
100
AcDbEntity
  8
SCHRIFT-035
 62
     7
100
AcDbText
 10
902.2463578350008
 20
437.5564087502031
 30
0.0
 40
3.5
  1
G
 72
     4
 11
904.1479608363649
 21
439.3064087502031
 31
0.0
100
AcDbText
  0
LINE
  5
2AFB
330
23
100
AcDbEntity
  8
XKANTEN-035
 62
     7
100
AcDbLine
 10
901.6479608363649
 20
464.3064087502031
 30
0.0
 11
906.647960836365
 21
464.3064087502031
 31
0.0
  0
TEXT
  5
2AFC
330
23
100
AcDbEntity
  8
SCHRIFT-035
 62
     7
100
AcDbText
 10
902.6546115867059
 20
487.5564087502031
 30
0.0
 40
3.5
  1
F
 72
     4
 11
904.1479608363649
 21
489.3064087502031
 31
0.0
100
AcDbText
  0
LINE
  5
2AFD
330
23
100
AcDbEntity
  8
XKANTEN-035
 62
     7
100
AcDbLine
 10
901.6479608363649
 20
514.3064087502031
 30
0.0
 11
906.647960836365
 21
514.3064087502031
 31
0.0
  0
TEXT
  5
2AFE
330
23
100
AcDbEntity
  8
SCHRIFT-035
 62
     7
100
AcDbText
 10
902.517333278384
 20
537.5564087502031
 30
0.0
 40
3.5
  1
E
 72
     4
 11
904.1479608363649
 21
539.3064087502031
 31
0.0
100
AcDbText
  0
LINE
  5
2AFF
330
23
100
AcDbEntity
  8
XKANTEN-035
 62
     7
100
AcDbLine
 10
901.6479608363649
 20
564.3064087502031
 30
0.0
 11
906.647960836365
 21
564.3064087502031
 31
0.0
  0
LINE
  5
2B00
330
23
100
AcDbEntity
  8
XKANTEN-035
 62
     7
100
AcDbLine
 10
714.6479608363652
 20
769.3064087502031
 30
0.0
 11
714.6479608363652
 21
764.3064087502031
 31
0.0
  0
TEXT
  5
2B01
330
23
100
AcDbEntity
  8
SCHRIFT-035
 62
     7
100
AcDbText
 10
738.2883087217674
 20
765.0790895141867
 30
0.0
 40
3.5
  1
9
 72
     4
 11
739.6479608363649
 21
766.8064087502031
 31
0.0
100
AcDbText
  0
LINE
  5
2B02
330
23
100
AcDbEntity
  8
XKANTEN-035
 62
     7
100
AcDbLine
 10
764.6479608363649
 20
764.3064087502031
 30
0.0
 11
764.6479608363649
 21
769.306408750203
 31
0.0
  0
TEXT
  5
2B03
330
23
100
AcDbEntity
  8
SCHRIFT-035
 62
     7
100
AcDbText
 10
786.9286566071698
 20
765.0790895141867
 30
0.0
 40
3.5
  1
10
 72
     4
 11
789.6479608363649
 21
766.8064087502031
 31
0.0
100
AcDbText
  0
TEXT
  5
2B04
330
23
100
AcDbEntity
  8
SCHRIFT-035
 62
     7
100
AcDbText
 10
902.3824424189026
 20
587.5564087502031
 30
0.0
 40
3.5
  1
D
 72
     4
 11
904.1479608363649
 21
589.3064087502031
 31
0.0
100
AcDbText
  0
LINE
  5
2B05
330
23
100
AcDbEntity
  8
XKANTEN-035
 62
     7
100
AcDbLine
 10
906.647960836365
 20
614.3064087502031
 30
0.0
 11
901.6479608363649
 21
614.3064087502031
 31
0.0
  0
TEXT
  5
2B06
330
23
100
AcDbEntity
  8
SCHRIFT-035
 62
     7
100
AcDbText
 10
902.3824424189026
 20
637.5564087502031
 30
0.0
 40
3.5
  1
C
 72
     4
 11
904.1479608363649
 21
639.3064087502031
 31
0.0
100
AcDbText
  0
LINE
  5
2B07
330
23
100
AcDbEntity
  8
XKANTEN-035
 62
     7
100
AcDbLine
 10
901.6479608363649
 20
664.3064087502031
 30
0.0
 11
906.647960836365
 21
664.3064087502031
 31
0.0
  0
TEXT
  5
2B08
330
23
100
AcDbEntity
  8
SCHRIFT-035
 62
     7
100
AcDbText
 10
902.517333278384
 20
687.5564087502031
 30
0.0
 40
3.5
  1
B
 72
     4
 11
904.1479608363649
 21
689.3064087502031
 31
0.0
100
AcDbText
  0
LINE
  5
2B09
330
23
100
AcDbEntity
  8
XKANTEN-035
 62
     7
100
AcDbLine
 10
814.647960836365
 20
764.3064087502031
 30
0.0
 11
814.647960836365
 21
769.306408750203
 31
0.0
  0
TEXT
  5
2B0A
330
23
100
AcDbEntity
  8
SCHRIFT-035
 62
     7
100
AcDbText
 10
836.9286566071698
 20
765.049246403682
 30
0.0
 40
3.5
  1
11
 72
     4
 11
839.647960836365
 21
766.8064087502031
 31
0.0
100
AcDbText
  0
LINE
  5
2B0B
330
23
100
AcDbEntity
  8
XKANTEN-035
 62
     7
100
AcDbLine
 10
864.647960836365
 20
764.3064087502031
 30
0.0
 11
864.647960836365
 21
769.306408750203
 31
0.0
  0
TEXT
  5
2B0C
330
23
100
AcDbEntity
  8
SCHRIFT-035
 62
     7
100
AcDbText
 10
883.0219758701007
 20
765.049246403682
 30
0.0
 40
3.5
  1
12
 72
     4
 11
885.7412800992959
 21
766.8064087502031
 31
0.0
100
AcDbText
  0
LINE
  5
2B0D
330
23
100
AcDbEntity
  8
XKANTEN-035
 62
     7
100
AcDbLine
 10
901.6479608363649
 20
714.3064087502031
 30
0.0
 11
906.647960836365
 21
714.3064087502031
 31
0.0
  0
TEXT
  5
2B0E
330
23
100
AcDbEntity
  8
SCHRIFT-035
 62
     7
100
AcDbText
 10
902.517333278384
 20
737.5564087502031
 30
0.0
 40
3.5
  1
A
 72
     4
 11
904.1479608363649
 21
739.3064087502031
 31
0.0
100
AcDbText
  0
HATCH
  5
2B0F
330
23
100
AcDbEntity
  8
XKANTEN-025
 62
     7
100
AcDbHatch
 10
0.0
 20
0.0
 30
0.0
210
0.0
220
0.0
230
1.0
  2
SOLID
 70
     1
 71
     1
 91
        1
 92
        7
 72
     0
 73
     1
 93
        7
 10
911.6479608363615
 20
774.306408750203
 10
906.6479608363618
 20
774.306408750203
 10
901.6479608363617
 20
774.306408750203
 10
901.6479608363617
 20
769.306408750203
 10
906.6479608363618
 20
769.306408750203
 10
906.6479608363618
 20
764.306408750203
 10
911.6479608363617
 20
764.306408750203
 97
        2
330
2B11
330
2B10
 75
     0
 76
     1
 47
0.2034819829852284
 98
        1
 10
909.8384571832255
 20
766.7913703664676
  0
LWPOLYLINE
  5
2B10
102
{ACAD_REACTORS
330
2B0F
102
}
330
23
100
AcDbEntity
  8
XKANTEN-025
 62
     7
100
AcDbPolyline
 90
        5
 70
     0
 43
0.0
 10
911.6479608363617
 20
769.306408750203
 10
911.6479608363617
 20
774.306408750203
 10
901.6479608363617
 20
774.306408750203
 10
901.6479608363617
 20
769.306408750203
 10
906.6479608363618
 20
769.306408750203
  0
LWPOLYLINE
  5
2B11
102
{ACAD_REACTORS
330
2B0F
102
}
330
23
100
AcDbEntity
  8
XKANTEN-025
 62
     7
100
AcDbPolyline
 90
        5
 70
     0
 43
0.0
 10
906.6479608363618
 20
769.306408750203
 10
906.6479608363618
 20
764.306408750203
 10
911.6479608363617
 20
764.306408750203
 10
911.6479608363617
 20
774.306408750203
 10
906.6479608363618
 20
774.306408750203
  0
HATCH
  5
2B12
330
23
100
AcDbEntity
  8
XKANTEN-025
 62
     7
100
AcDbHatch
 10
0.0
 20
0.0
 30
0.0
210
0.0
220
0.0
230
1.0
  2
SOLID
 70
     1
 71
     1
 91
        1
 92
        7
 72
     0
 73
     1
 93
        6
 10
911.6479608363652
 20
364.3064087502031
 10
906.6479608363648
 20
364.3064087502031
 10
906.6479608363648
 20
359.306408750203
 10
901.6479608363649
 20
359.3064087502032
 10
901.6479608363649
 20
354.3064087502031
 10
911.6479608363647
 20
354.3064087502031
 97
        2
330
2B14
330
2B13
 75
     0
 76
     1
 47
0.2034819829852284
 98
        1
 10
909.8384571832287
 20
361.8214471339385
  0
LWPOLYLINE
  5
2B13
102
{ACAD_REACTORS
330
2B12
102
}
330
23
100
AcDbEntity
  8
XKANTEN-025
 62
     7
100
AcDbPolyline
 90
        5
 70
     0
 43
0.0
 10
911.6479608363649
 20
359.306408750203
 10
911.6479608363649
 20
354.3064087502031
 10
901.6479608363649
 20
354.3064087502031
 10
901.6479608363649
 20
359.306408750203
 10
906.647960836365
 20
359.306408750203
  0
LWPOLYLINE
  5
2B14
102
{ACAD_REACTORS
330
2B12
102
}
330
23
100
AcDbEntity
  8
XKANTEN-025
 62
     7
100
AcDbPolyline
 90
        5
 70
     0
 43
0.0
 10
906.647960836365
 20
359.306408750203
 10
906.647960836365
 20
364.3064087502031
 10
911.6479608363649
 20
364.3064087502031
 10
911.6479608363649
 20
354.3064087502031
 10
906.647960836365
 20
354.3064087502031
  0
TEXT
  5
2B15
330
23
100
AcDbEntity
  8
SCHRIFT-035
 62
     7
100
AcDbText
 10
902.3824424189026
 20
387.5564087502031
 30
0.0
 40
3.5
  1
H
 72
     4
 11
904.1479608363649
 21
389.3064087502031
 31
0.0
100
AcDbText
  0
LINE
  5
2B16
330
23
100
AcDbEntity
  8
XKANTEN-035
 62
     7
100
AcDbLine
 10
901.6479608363649
 20
414.3064087502031
 30
0.0
 11
906.647960836365
 21
414.3064087502031
 31
0.0
  0
LINE
  5
2B17
330
23
100
AcDbEntity
  8
XKANTEN-035
 62
     7
100
AcDbLine
 10
714.6479608363652
 20
364.3064087502031
 30
0.0
 11
714.6479608363652
 21
359.306408750203
 31
0.0
  0
TEXT
  5
2B18
330
23
100
AcDbEntity
  8
SCHRIFT-035
 62
     7
100
AcDbText
 10
738.2883087217674
 20
360.0790895141867
 30
0.0
 40
3.5
  1
9
 72
     4
 11
739.6479608363649
 21
361.806408750203
 31
0.0
100
AcDbText
  0
LINE
  5
2B19
330
23
100
AcDbEntity
  8
XKANTEN-035
 62
     7
100
AcDbLine
 10
764.6479608363649
 20
359.306408750203
 30
0.0
 11
764.6479608363649
 21
364.3064087502029
 31
0.0
  0
TEXT
  5
2B1A
330
23
100
AcDbEntity
  8
SCHRIFT-035
 62
     7
100
AcDbText
 10
786.9286566071698
 20
360.0790895141867
 30
0.0
 40
3.5
  1
10
 72
     4
 11
789.6479608363649
 21
361.806408750203
 31
0.0
100
AcDbText
  0
LINE
  5
2B1B
330
23
100
AcDbEntity
  8
XKANTEN-035
 62
     7
100
AcDbLine
 10
814.647960836365
 20
359.306408750203
 30
0.0
 11
814.647960836365
 21
364.3064087502029
 31
0.0
  0
TEXT
  5
2B1C
330
23
100
AcDbEntity
  8
SCHRIFT-035
 62
     7
100
AcDbText
 10
836.9286566071698
 20
360.0492464036819
 30
0.0
 40
3.5
  1
11
 72
     4
 11
839.647960836365
 21
361.806408750203
 31
0.0
100
AcDbText
  0
LINE
  5
2B1D
330
23
100
AcDbEntity
  8
XKANTEN-035
 62
     7
100
AcDbLine
 10
864.647960836365
 20
359.306408750203
 30
0.0
 11
864.647960836365
 21
364.3064087502029
 31
0.0
  0
TEXT
  5
2B1E
330
23
100
AcDbEntity
  8
SCHRIFT-035
 62
     7
100
AcDbText
 10
880.4425443379015
 20
360.0492464036819
 30
0.0
 40
3.5
  1
A2
 72
     4
 11
883.4292428372194
 21
361.806408750203
 31
0.0
100
AcDbText
  0
LINE
  5
2B1F
330
23
100
AcDbEntity
  8
XKANTEN-035
 62
     7
100
AcDbLine
 10
332.6479608363649
 20
359.306408750203
 30
0.0
 11
906.647960836365
 21
359.306408750203
 31
0.0
  0
LINE
  5
2B20
330
23
100
AcDbEntity
  8
XKANTEN-035
 62
     7
100
AcDbLine
 10
906.647960836365
 20
359.306408750203
 30
0.0
 11
906.647960836365
 21
769.3064087502031
 31
0.0
  0
LINE
  5
2B21
330
23
100
AcDbEntity
  8
XKANTEN-035
 62
     7
100
AcDbLine
 10
906.647960836365
 20
769.3064087502031
 30
0.0
 11
332.6479608363649
 21
769.3064087502031
 31
0.0
  0
LINE
  5
2B22
330
23
100
AcDbEntity
  8
XKANTEN-035
 62
     7
100
AcDbLine
 10
332.6479608363649
 20
769.3064087502031
 30
0.0
 11
332.6479608363649
 21
359.306408750203
 31
0.0
  0
LINE
  5
2B23
330
23
100
AcDbEntity
  8
XKANTEN-07
 62
     7
100
AcDbLine
 10
337.6479608363649
 20
364.3064087502031
 30
0.0
 11
901.6479608363649
 21
364.3064087502031
 31
0.0
  0
LINE
  5
2B24
330
23
100
AcDbEntity
  8
XKANTEN-07
 62
     7
100
AcDbLine
 10
901.6479608363649
 20
364.3064087502031
 30
0.0
 11
901.6479608363649
 21
764.3064087502031
 31
0.0
  0
LINE
  5
2B25
330
23
100
AcDbEntity
  8
XKANTEN-07
 62
     7
100
AcDbLine
 10
901.6479608363649
 20
764.3064087502031
 30
0.0
 11
337.6479608363649
 21
764.3064087502031
 31
0.0
  0
LINE
  5
2B26
330
23
100
AcDbEntity
  8
XKANTEN-07
 62
     7
100
AcDbLine
 10
337.6479608363649
 20
764.3064087502031
 30
0.0
 11
337.6479608363649
 21
364.3064087502031
 31
0.0
  0
LINE
  5
2B27
330
23
100
AcDbEntity
  8
XKANTEN-025
 62
     7
100
AcDbLine
 10
317.6479608363649
 20
354.3064087502031
 30
0.0
 11
911.6479608363649
 21
354.3064087502031
 31
0.0
  0
LINE
  5
2B28
330
23
100
AcDbEntity
  8
XKANTEN-025
 62
     7
100
AcDbLine
 10
911.6479608363649
 20
354.3064087502031
 30
0.0
 11
911.6479608363649
 21
774.306408750203
 31
0.0
  0
LINE
  5
2B29
330
23
100
AcDbEntity
  8
XKANTEN-025
 62
     7
100
AcDbLine
 10
911.6479608363649
 20
774.306408750203
 30
0.0
 11
317.6479608363649
 21
774.306408750203
 31
0.0
  0
LINE
  5
2B2A
330
23
100
AcDbEntity
  8
XKANTEN-025
 62
     7
100
AcDbLine
 10
317.6479608363649
 20
774.306408750203
 30
0.0
 11
317.6479608363649
 21
354.3064087502031
 31
0.0
  0
LINE
  5
2B2B
330
23
100
AcDbEntity
  8
XKANTEN-025
 62
     7
100
AcDbLine
 10
322.6479608363649
 20
359.306408750203
 30
0.0
 11
322.6479608363649
 21
364.3064087502031
 31
0.0
  0
LINE
  5
2B2C
330
23
100
AcDbEntity
  8
XKANTEN-025
 62
     7
100
AcDbLine
 10
322.6479608363649
 20
364.3064087502031
 30
0.0
 11
317.6479608363649
 21
364.3064087502031
 31
0.0
  0
LINE
  5
2B2D
330
23
100
AcDbEntity
  8
XKANTEN-025
 62
     7
100
AcDbLine
 10
317.6479608363649
 20
364.3064087502031
 30
0.0
 11
317.6479608363649
 21
354.3064087502031
 31
0.0
  0
LINE
  5
2B2E
330
23
100
AcDbEntity
  8
XKANTEN-025
 62
     7
100
AcDbLine
 10
317.6479608363649
 20
354.3064087502031
 30
0.0
 11
322.6479608363649
 21
354.3064087502031
 31
0.0
  0
LINE
  5
2B2F
330
23
100
AcDbEntity
  8
XKANTEN-025
 62
     7
100
AcDbLine
 10
317.6479608363649
 20
359.306408750203
 30
0.0
 11
317.6479608363649
 21
354.3064087502031
 31
0.0
  0
LINE
  5
2B30
330
23
100
AcDbEntity
  8
XKANTEN-025
 62
     7
100
AcDbLine
 10
317.6479608363649
 20
354.3064087502031
 30
0.0
 11
327.6479608363649
 21
354.3064087502031
 31
0.0
  0
LINE
  5
2B31
330
23
100
AcDbEntity
  8
XKANTEN-025
 62
     7
100
AcDbLine
 10
327.6479608363649
 20
354.3064087502031
 30
0.0
 11
327.6479608363649
 21
359.306408750203
 31
0.0
  0
LINE
  5
2B32
330
23
100
AcDbEntity
  8
XKANTEN-025
 62
     7
100
AcDbLine
 10
327.6479608363649
 20
359.306408750203
 30
0.0
 11
322.6479608363649
 21
359.306408750203
 31
0.0
  0
MTEXT
  5
2B33
330
23
100
AcDbEntity
  8
Gewinde(DIN)
100
AcDbMText
 10
815.9101675319202
 20
380.7343443258967
 30
0.0
 40
3.0
 41
71.7549
 71
     1
 72
     5
  1
{\fArial|b0|i0|c0|p0;MBR 20   = 0701101700}
 73
     1
 44
1.0
  0
ENDSEC
  0
SECTION
  2
OBJECTS
  0
DICTIONARY
  5
C
330
0
100
AcDbDictionary
281
     1
  3
ACAD_COLOR
350
1C
  3
ACAD_GROUP
350
D
  3
ACAD_LAYOUT
350
1A
  3
ACAD_MATERIAL
350
1B
  3
ACAD_MLINESTYLE
350
17
  3
ACAD_PLOTSETTINGS
350
19
  3
ACAD_PLOTSTYLENAME
350
E
  3
ACAD_TABLESTYLE
350
1D
  3
AcDbVariableDictionary
350
1B9A
  3
DWGPROPS
350
1DEE
  0
DICTIONARY
  5
1BA8
330
2
100
AcDbDictionary
280
     1
281
     1
  3
ACAD_LAYERFILTERS
360
1DEC
  3
ACAD_LAYERSTATES
360
23D1
  3
ACLYDICTIONARY
360
1DEB
  0
DICTIONARY
  5
1C
102
{ACAD_REACTORS
330
C
102
}
330
C
100
AcDbDictionary
281
     1
  0
DICTIONARY
  5
D
102
{ACAD_REACTORS
330
C
102
}
330
C
100
AcDbDictionary
281
     1
  0
DICTIONARY
  5
1A
102
{ACAD_REACTORS
330
C
102
}
330
C
100
AcDbDictionary
281
     1
  3
Layout1
350
22
  3
Layout2
350
2A
  3
Model
350
26
  0
DICTIONARY
  5
1B
102
{ACAD_REACTORS
330
C
102
}
330
C
100
AcDbDictionary
281
     1
  0
DICTIONARY
  5
17
102
{ACAD_REACTORS
330
C
102
}
330
C
100
AcDbDictionary
281
     1
  3
Standard
350
18
  0
DICTIONARY
  5
19
102
{ACAD_REACTORS
330
C
102
}
330
C
100
AcDbDictionary
281
     1
  0
ACDBDICTIONARYWDFLT
  5
E
102
{ACAD_REACTORS
330
C
102
}
330
C
100
AcDbDictionary
281
     1
  3
Normal
350
F
100
AcDbDictionaryWithDefault
340
F
  0
DICTIONARY
  5
1D
102
{ACAD_REACTORS
330
C
102
}
330
C
100
AcDbDictionary
281
     1
  3
Standard
350
1E
  0
DICTIONARY
  5
1B9A
102
{ACAD_REACTORS
330
C
102
}
330
C
100
AcDbDictionary
281
     1
  3
CTABLESTYLE
350
1B9B
  3
DIMASSOC
350
1B9D
  3
HIDETEXT
350
1B9C
  3
PROJECTNAME
350
1B9E
  0
XRECORD
  5
1DEE
102
{ACAD_REACTORS
330
C
102
}
330
C
100
AcDbXrecord
280
     1
  1
DWGPROPS COOKIE
  2

  3

  4
Ruprecht
  6

  7

  8

  9

300
Manager=
301
Firma=
302
Kategorie=
303
Bauteilnummer=mbr 20
304
Bezeichnung=
305
Projekt=
306
Konstrukteur=Ruprecht
307
Ingenieur=
308
Bevollmächtigter=
309
Kostenstelle=
 40
0.0016368518518519
 41
2453486.893323542
 42
2453486.895602164
  1

 90
       16
300
Händler=
300
Benutzerstatus=
300
Konstruktionsstatus=InBearbeitung
300
Überprüft von=
300
Konstruktion genehmigt von=
300
Fertigung genehmigt von=
  0
DICTIONARY
  5
1DEC
102
{ACAD_REACTORS
330
1BA8
102
}
330
1BA8
100
AcDbDictionary
281
     1
  3
Bemaßungen
350
2253
  3
Schraffuren
350
2254
  3
Sichtbare Kanten
350
2255
  3
Verdeckte Kanten
350
2256
  0
DICTIONARY
  5
23D1
102
{ACAD_REACTORS
330
1BA8
102
}
330
1BA8
100
AcDbDictionary
281
     1
  0
DICTIONARY
  5
1DEB
102
{ACAD_REACTORS
330
1BA8
102
}
330
1BA8
100
AcDbDictionary
281
     1
1001
ACAD
1000
<All
  0
LAYOUT
  5
22
102
{ACAD_XDICTIONARY
360
1DF0
102
}
102
{ACAD_REACTORS
330
1A
102
}
330
1A
100
AcDbPlotSettings
  1

  2

  4

  6

 40
0.0
 41
0.0
 42
0.0
 43
0.0
 44
0.0
 45
0.0
 46
0.0
 47
0.0
 48
0.0
 49
0.0
140
0.0
141
0.0
142
1.0
143
1.0
 70
   688
 72
     0
 73
     0
 74
     5
  7

 75
    16
147
1.0
148
0.0
149
0.0
100
AcDbLayout
  1
Layout1
 70
     1
 71
     1
 10
0.0
 20
0.0
 11
420.0
 21
297.0
 12
0.0
 22
0.0
 32
0.0
 14
0.0
 24
0.0
 34
0.0
 15
420.0
 25
297.0
 35
0.0
146
0.0
 13
0.0
 23
0.0
 33
0.0
 16
1.0
 26
0.0
 36
0.0
 17
0.0
 27
1.0
 37
0.0
 76
     0
330
1F
  0
LAYOUT
  5
2A
102
{ACAD_XDICTIONARY
360
1DF4
102
}
102
{ACAD_REACTORS
330
1A
102
}
330
1A
100
AcDbPlotSettings
  1

  2

  4

  6

 40
0.0
 41
0.0
 42
0.0
 43
0.0
 44
0.0
 45
0.0
 46
0.0
 47
0.0
 48
0.0
 49
0.0
140
0.0
141
0.0
142
1.0
143
1.0
 70
   688
 72
     0
 73
     0
 74
     5
  7

 75
    16
147
1.0
148
0.0
149
0.0
100
AcDbLayout
  1
Layout2
 70
     1
 71
     2
 10
0.0
 20
0.0
 11
12.0
 21
9.0
 12
0.0
 22
0.0
 32
0.0
 14
0.0
 24
0.0
 34
0.0
 15
0.0
 25
0.0
 35
0.0
146
0.0
 13
0.0
 23
0.0
 33
0.0
 16
1.0
 26
0.0
 36
0.0
 17
0.0
 27
1.0
 37
0.0
 76
     0
330
27
  0
LAYOUT
  5
26
102
{ACAD_XDICTIONARY
360
1DF2
102
}
102
{ACAD_REACTORS
330
1A
102
}
330
1A
100
AcDbPlotSettings
  1

  2
HP DeskJet 1220C
  4
A4
  6

 40
4.180416584014892
 41
12.562424659729
 42
4.180404663085937
 43
3.84173583984375
 44
209.9733276367187
 45
296.9259948730469
 46
0.0
 47
0.0
 48
0.0
 49
0.0
140
0.0
141
0.0
142
1.0
143
1.0
 70
 11952
 72
     1
 73
     1
 74
     0
  7

 75
     0
147
1.0
148
-403.0339835198865
149
-352.6987247626156
100
AcDbLayout
  1
Model
 70
     1
 71
     0
 10
0.0
 20
0.0
 11
12.0
 21
9.0
 12
0.0
 22
0.0
 32
0.0
 14
0.0
 24
0.0
 34
0.0
 15
0.0
 25
0.0
 35
0.0
146
0.0
 13
0.0
 23
0.0
 33
0.0
 16
1.0
 26
0.0
 36
0.0
 17
0.0
 27
1.0
 37
0.0
 76
     0
330
23
  0
MLINESTYLE
  5
18
102
{ACAD_REACTORS
330
17
102
}
330
17
100
AcDbMlineStyle
  2
STANDARD
 70
     0
  3

 62
   256
 51
90.0
 52
90.0
 71
     2
 49
0.5
 62
   256
  6
BYLAYER
 49
-0.5
 62
   256
  6
BYLAYER
  0
ACDBPLACEHOLDER
  5
F
102
{ACAD_REACTORS
330
E
102
}
330
E
  0
ACAD_PROXY_OBJECT
  5
1E
102
{ACAD_REACTORS
330
1D
102
}
330
1D
100
AcDbProxyObject
 90
      499
 91
      501
 95
   851991
 70
     0
 93
     1841
310
4214DD185B99185C9928B81E85EB51B8AE3F2E07A17AD46E2B8FC02B5E8DC0F42B1CFD028000000C1008070000C3001FDFF8000000C1003FBFF000000182007F7FE00000030400FEFFC00000060801FDFF8000000C1003FBFF00000018200000000000000681FA0B0000001820100E000186003FBFF000000182007F7FE000
310
00030400FEFFC00000060801FDFF8000000C1003FBFF000000182007F7FE000000304000AD7A3703D0AC73F4160000003040201C00030C007F7FE00000030400FEFFC00000060801FDFF8000000C1003FBFF000000182007F7FE00000030400FEFFC000000608019
340
11
340
11
340
11
 94
        0
  0
DICTIONARYVAR
  5
1B9B
102
{ACAD_REACTORS
330
1B9A
102
}
330
1B9A
100
DictionaryVariables
280
     0
  1
STANDARD
  0
DICTIONARYVAR
  5
1B9D
102
{ACAD_REACTORS
330
1B9A
102
}
330
1B9A
100
DictionaryVariables
280
     0
  1
1
  0
DICTIONARYVAR
  5
1B9C
102
{ACAD_REACTORS
330
1B9A
102
}
330
1B9A
100
DictionaryVariables
280
     0
  1
1
  0
DICTIONARYVAR
  5
1B9E
102
{ACAD_REACTORS
330
1B9A
102
}
330
1B9A
100
DictionaryVariables
280
     0
  1

  0
XRECORD
  5
2253
102
{ACAD_REACTORS
330
1DEC
102
}
330
1DEC
100
AcDbXrecord
280
     1
  1
Bemaßungen
  1
*-DIM
  1
*
  1
*
 70
     0
  1
*
  1
*
  0
XRECORD
  5
2254
102
{ACAD_REACTORS
330
1DEC
102
}
330
1DEC
100
AcDbXrecord
280
     1
  1
Schraffuren
  1
*-HAT
  1
*
  1
*
 70
     0
  1
*
  1
*
  0
XRECORD
  5
2255
102
{ACAD_REACTORS
330
1DEC
102
}
330
1DEC
100
AcDbXrecord
280
     1
  1
Sichtbare Kanten
  1
*-VIS
  1
*
  1
*
 70
     0
  1
*
  1
*
  0
XRECORD
  5
2256
102
{ACAD_REACTORS
330
1DEC
102
}
330
1DEC
100
AcDbXrecord
280
     1
  1
Verdeckte Kanten
  1
*-HID
  1
*
  1
*
 70
     0
  1
*
  1
*
  0
DICTIONARY
  5
1DF0
330
22
100
AcDbDictionary
280
     1
281
     1
  3
ACAD_XREC_ROUNDTRIP
360
1DF1
  0
DICTIONARY
  5
1DF4
330
2A
100
AcDbDictionary
280
     1
281
     1
  3
ACAD_XREC_ROUNDTRIP
360
1DF5
  0
DICTIONARY
  5
1DF2
330
26
100
AcDbDictionary
280
     1
281
     1
  3
ACAD_XREC_ROUNDTRIP
360
1DF3
  0
XRECORD
  5
1DF1
102
{ACAD_REACTORS
330
1DF0
102
}
330
1DF0
100
AcDbXrecord
280
     1
102
SHADEPLOT
 70
     0
102
SHADEPLOTRESLEVEL
 70
     2
102
SHADEPLOTCUSTOMDPI
 70
   300
  0
XRECORD
  5
1DF5
102
{ACAD_REACTORS
330
1DF4
102
}
330
1DF4
100
AcDbXrecord
280
     1
102
SHADEPLOT
 70
     0
102
SHADEPLOTRESLEVEL
 70
     2
102
SHADEPLOTCUSTOMDPI
 70
   300
  0
XRECORD
  5
1DF3
102
{ACAD_REACTORS
330
1DF2
102
}
330
1DF2
100
AcDbXrecord
280
     1
102
SHADEPLOT
 70
     0
102
SHADEPLOTRESLEVEL
 70
     2
102
SHADEPLOTCUSTOMDPI
 70
   300
  0
ENDSEC
  0
EOF
