  0
SECTION
  2
HEADER
  9
$ACADVER
  1
AC1009
  9
$INSBASE
 10
0.0
 20
0.0
 30
0.0
  9
$EXTMIN
 10
175.0174220897477
 20
-86.664833768622927
 30
0.0
  9
$EXTMAX
 10
472.01742208974781
 20
123.3351662313771
 30
0.0
  9
$LIMMIN
 10
0.0
 20
0.0
  9
$LIMMAX
 10
12.0
 20
9.0
  9
$ORTHOMODE
 70
     0
  9
$REGENMODE
 70
     1
  9
$FILLMODE
 70
     1
  9
$QTEXTMODE
 70
     0
  9
$MIRRTEXT
 70
     1
  9
$DRAGMODE
 70
     2
  9
$LTSCALE
 40
1.0
  9
$OSMODE
 70
    37
  9
$ATTMODE
 70
     1
  9
$TEXTSIZE
 40
1.0
  9
$TRACEWID
 40
0.05
  9
$TEXTSTYLE
  7
STANDARD
  9
$CLAYER
  8
5
  9
$CELTYPE
  6
CONTINUOUS
  9
$CECOLOR
 62
   256
  9
$DIMSCALE
 40
1.0
  9
$DIMASZ
 40
3.0
  9
$DIMEXO
 40
0.0625
  9
$DIMDLI
 40
0.38
  9
$DIMRND
 40
0.0
  9
$DIMDLE
 40
0.0
  9
$DIMEXE
 40
0.18
  9
$DIMTP
 40
0.0
  9
$DIMTM
 40
0.0
  9
$DIMTXT
 40
3.0
  9
$DIMCEN
 40
0.09
  9
$DIMTSZ
 40
0.0
  9
$DIMTOL
 70
     0
  9
$DIMLIM
 70
     0
  9
$DIMTIH
 70
     0
  9
$DIMTOH
 70
     0
  9
$DIMSE1
 70
     0
  9
$DIMSE2
 70
     0
  9
$DIMTAD
 70
     0
  9
$DIMZIN
 70
     0
  9
$DIMBLK
  1

  9
$DIMASO
 70
     1
  9
$DIMSHO
 70
     1
  9
$DIMPOST
  1

  9
$DIMAPOST
  1

  9
$DIMALT
 70
     0
  9
$DIMALTD
 70
     2
  9
$DIMALTF
 40
25.399999999999999
  9
$DIMLFAC
 40
1.0
  9
$DIMTOFL
 70
     0
  9
$DIMTVP
 40
0.0
  9
$DIMTIX
 70
     0
  9
$DIMSOXD
 70
     0
  9
$DIMSAH
 70
     0
  9
$DIMBLK1
  1

  9
$DIMBLK2
  1

  9
$DIMSTYLE
  2
STANDARD
  9
$DIMCLRD
 70
     7
  9
$DIMCLRE
 70
     0
  9
$DIMCLRT
 70
     7
  9
$DIMTFAC
 40
1.0
  9
$DIMGAP
 40
0.09
  9
$LUNITS
 70
     2
  9
$LUPREC
 70
     4
  9
$SKETCHINC
 40
0.1
  9
$FILLETRAD
 40
0.0
  9
$AUNITS
 70
     0
  9
$AUPREC
 70
     0
  9
$MENU
  1
.
  9
$ELEVATION
 40
0.0
  9
$PELEVATION
 40
0.0
  9
$THICKNESS
 40
0.0
  9
$LIMCHECK
 70
     0
  9
$BLIPMODE
 70
     0
  9
$CHAMFERA
 40
0.0
  9
$CHAMFERB
 40
0.0
  9
$SKPOLY
 70
     0
  9
$TDCREATE
 40
2452963.6053001969
  9
$TDUPDATE
 40
2454547.6554250461
  9
$TDINDWG
 40
0.071243669
  9
$TDUSRTIMER
 40
0.071243669
  9
$USRTIMER
 70
     1
  9
$ANGBASE
 50
0.0
  9
$ANGDIR
 70
     0
  9
$PDMODE
 70
     0
  9
$PDSIZE
 40
0.0
  9
$PLINEWID
 40
0.0
  9
$COORDS
 70
     1
  9
$SPLFRAME
 70
     0
  9
$SPLINETYPE
 70
     6
  9
$SPLINESEGS
 70
     8
  9
$ATTDIA
 70
     1
  9
$ATTREQ
 70
     1
  9
$HANDLING
 70
     1
  9
$HANDSEED
  5
19E3
  9
$SURFTAB1
 70
     6
  9
$SURFTAB2
 70
     6
  9
$SURFTYPE
 70
     6
  9
$SURFU
 70
     6
  9
$SURFV
 70
     6
  9
$UCSNAME
  2

  9
$UCSORG
 10
0.0
 20
0.0
 30
0.0
  9
$UCSXDIR
 10
1.0
 20
0.0
 30
0.0
  9
$UCSYDIR
 10
0.0
 20
1.0
 30
0.0
  9
$PUCSNAME
  2

  9
$PUCSORG
 10
0.0
 20
0.0
 30
0.0
  9
$PUCSXDIR
 10
1.0
 20
0.0
 30
0.0
  9
$PUCSYDIR
 10
0.0
 20
1.0
 30
0.0
  9
$USERI1
 70
     0
  9
$USERI2
 70
     0
  9
$USERI3
 70
     0
  9
$USERI4
 70
     0
  9
$USERI5
 70
     0
  9
$USERR1
 40
0.0
  9
$USERR2
 40
0.0
  9
$USERR3
 40
0.0
  9
$USERR4
 40
0.0
  9
$USERR5
 40
0.0
  9
$WORLDVIEW
 70
     1
  9
$SHADEDGE
 70
     3
  9
$SHADEDIF
 70
    70
  9
$TILEMODE
 70
     1
  9
$MAXACTVP
 70
    64
  9
$PLIMCHECK
 70
     0
  9
$PEXTMIN
 10
1.1044166707617089
 20
0.7937500251559762
 30
0.0
  9
$PEXTMAX
 10
9.9397500368553811
 20
7.1437502264037844
 30
0.0
  9
$PLIMMIN
 10
-0.1512494425135334
 20
-0.1645833300793265
  9
$PLIMMAX
 10
11.538750355637919
 20
8.1020831123111758
  9
$UNITMODE
 70
     0
  9
$VISRETAIN
 70
     1
  9
$PLINEGEN
 70
     0
  9
$PSLTSCALE
 70
     1
  0
ENDSEC
  0
SECTION
  2
TABLES
  0
TABLE
  2
VPORT
 70
     4
  0
VPORT
  2
*ACTIVE
 70
     0
 10
0.0
 20
0.0
 11
1.0
 21
1.0
 12
323.50756833647432
 22
26.308666747836732
 13
0.0
 23
0.0
 14
1.0
 24
1.0
 15
0.0
 25
0.0
 16
0.0
 26
0.0
 36
1.0
 17
0.0
 27
0.0
 37
0.0
 40
227.5874789929268
 41
1.4019975031210981
 42
50.0
 43
0.0
 44
0.0
 50
0.0
 51
0.0
 71
     0
 72
   100
 73
     1
 74
     1
 75
     0
 76
     0
 77
     0
 78
     0
  0
ENDTAB
  0
TABLE
  2
LTYPE
 70
    19
  0
LTYPE
  2
CONTINUOUS
 70
     0
  3
Solid Line
 72
    65
 73
     0
 40
0.0
  0
LTYPE
  2
0
 70
     0
  3
Solid Line
 72
    65
 73
     0
 40
0.0
  0
LTYPE
  2
2
 70
     0
  3
DOTTED
 72
    65
 73
    12
 40
0.24
 49
0.0
 49
-0.04
 49
0.0
 49
-0.04
 49
0.0
 49
-0.04
 49
0.0
 49
-0.04
 49
0.0
 49
-0.04
 49
0.0
 49
-0.04
  0
LTYPE
  2
ACAD_ISO10W100
 70
     0
  3
ISO Strichpunktlinie __ . __ . __ . __ . __ . _
 72
    65
 73
     4
 40
18.0
 49
12.0
 49
-3.0
 49
0.0
 49
-3.0
  0
LTYPE
  2
HIDDEN
 70
     0
  3
Verdeckt
 72
    65
 73
     2
 40
0.375
 49
0.25
 49
-0.125
  0
LTYPE
  2
PHANTOM2
 70
     0
  3
Phantom (.5x) ___ _ _ ___ _ _ ___ _ _ ___ _ _
 72
    65
 73
     6
 40
1.25
 49
0.625
 49
-0.125
 49
0.125
 49
-0.125
 49
0.125
 49
-0.125
  0
LTYPE
  2
CENTER
 70
     0
  3
Mitte ____ _ ____ _ ____ _ ____ _ ____ _ ____
 72
    65
 73
     4
 40
2.0
 49
1.25
 49
-0.25
 49
0.25
 49
-0.25
  0
LTYPE
  2
AMCONSTR
 70
     0
  3
_______________________
 72
    65
 73
     2
 40
9999.0
 49
9999.0
 49
0.0
  0
LTYPE
  2
CENTER2
 70
     0
  3
Center (.5x) ___ _ ___ _ ___ _ ___ _ ___ _ ___
 72
    65
 73
     4
 40
1.125
 49
0.75
 49
-0.125
 49
0.125
 49
-0.125
  0
LTYPE
  2
HIDDEN2
 70
     0
  3
Hidden (.5x) _ _ _ _ _ _ _ _ _ _ _ _ _ _ _ _ _
 72
    65
 73
     2
 40
0.1875
 49
0.125
 49
-0.0625
  0
LTYPE
  2
AMZIGZAG2
 70
     0
  3
/\/-/\/-/\/-/\/-/\/-/\/
 72
    65
 73
     2
 40
0.4401
 49
0.0001
 49
-0.4400000000000001
  0
LTYPE
  2
ACANSTGB
 70
     0
  3
__ . . __ . .
 72
    65
 73
     6
 40
0.35433070866
 49
0.15748031496
 49
-0.03937007874
 49
0.03937007874
 49
-0.03937007874
 49
0.03937007874
 49
-0.03937007874
  0
LTYPE
  2
ACANSTGL
 70
     0
  3
_ _ _ _ _
 72
    65
 73
     2
 40
0.11811023622
 49
0.07874015748
 49
-0.03937007874
  0
ENDTAB
  0
TABLE
  2
LAYER
 70
    12
  0
LAYER
  2
0
 70
     0
 62
     7
  6
CONTINUOUS
  0
LAYER
  2
1
 70
     0
 62
     7
  6
CONTINUOUS
  0
LAYER
  2
2
 70
     0
 62
     7
  6
CONTINUOUS
  0
LAYER
  2
4
 70
     0
 62
     7
  6
CONTINUOUS
  0
LAYER
  2
5
 70
     0
 62
     7
  6
CONTINUOUS
  0
LAYER
  2
DEFPOINTS
 70
     0
 62
     7
  6
CONTINUOUS
  0
LAYER
  2
SYMBOLE_DIN_
 70
     0
 62
     7
  6
CONTINUOUS
  0
LAYER
  2
BEMAßUNG-025
 70
     0
 62
    30
  6
CONTINUOUS
  0
LAYER
  2
SCHRIFT-025
 70
     0
 62
   191
  6
CONTINUOUS
  0
LAYER
  2
XKANTEN-025
 70
     0
 62
     5
  6
CONTINUOUS
  0
LAYER
  2
XKANTEN-07
 70
     0
 62
     3
  6
CONTINUOUS
  0
LAYER
  2
XAUßEN-025
 70
     0
 62
     6
  6
CONTINUOUS
  0
ENDTAB
  0
TABLE
  2
STYLE
 70
     5
  0
STYLE
  2
STANDARD
 70
     0
 40
0.0
 41
1.0
 50
0.0
 71
     0
 42
1.0
  3
txt
  4

  0
STYLE
  2
NORMAL
 70
     0
 40
0.0
 41
1.0
 50
0.0
 71
     0
 42
1.0
  3
simplex
  4

  0
STYLE
  2

 70
     1
 40
0.0
 41
1.0
 50
0.0
 71
     0
 42
0.2
  3
genltshp.shx
  4

  0
STYLE
  2
ACANSTS
 70
     0
 40
1.0
 41
1.0
 50
0.0
 71
     0
 42
0.2
  3
romans.shx
  4

  0
STYLE
  2
ACANSGDT
 70
     0
 40
0.0
 41
1.0
 50
0.0
 71
     0
 42
0.2
  3
AMGDT
  4

  0
ENDTAB
  0
TABLE
  2
VIEW
 70
     0
  0
ENDTAB
  0
TABLE
  2
UCS
 70
     0
  0
ENDTAB
  0
TABLE
  2
APPID
 70
    19
  0
APPID
  2
ACAD
 70
     0
  0
APPID
  2
ACAD_DSTYLE_DIMTEXT_FILL
 70
     0
  0
APPID
  2
GENIUS_GENDIM_13
 70
     0
  0
APPID
  2
GENIUS_GENDTOL_13
 70
     0
  0
APPID
  2
GENIUS_GE3DTOL_13
 70
     0
  0
APPID
  2
MCAD_NO_VIS
 70
     0
  0
APPID
  2
ACAD_TEMP_GRAPHIC
 70
     0
  0
APPID
  2
AD_DRAW
 70
     0
  0
APPID
  2
ACATTRIBSERVICES
 70
     0
  0
APPID
  2
ASURF_PCURVE_APPNAME
 70
     0
  0
APPID
  2
AMG_3D2D_5_0
 70
     0
  0
APPID
  2
DESIGNERASSEMBLIES
 70
     0
  0
APPID
  2
ACADM_DIM_EDIT
 70
     0
  0
APPID
  2
AMDT_DM_ADJ
 70
     0
  0
APPID
  2
ACAD_DSTYLE_DIMARC_LENGTH_
 70
     0
  0
APPID
  2
ACAD_DSTYLE_DIMJOGGED_JOGA
 70
     0
  0
APPID
  2
GENIUS_GENSCREG_15
 70
     0
  0
APPID
  2
GENIUS_GENODEF_13
 70
     0
  0
APPID
  2
GENIUS_GENOBJ-N-SDF_13
 70
     0
  0
ENDTAB
  0
TABLE
  2
DIMSTYLE
 70
     7
  0
DIMSTYLE
  2
STANDARD
 70
     0
  3

  4

  5

  6

  7

 40
1.0
 41
3.0
 42
0.0625
 43
0.38
 44
0.18
 45
0.0
 46
0.0
 47
0.0
 48
0.0
140
3.0
141
0.09
142
0.0
143
25.399999999999999
144
1.0
145
0.0
146
1.0
147
0.09
 71
     0
 72
     0
 73
     0
 74
     0
 75
     0
 76
     0
 77
     0
 78
     0
170
     0
171
     2
172
     0
173
     0
174
     0
175
     0
176
     7
177
     0
178
     7
  0
DIMSTYLE
  2
AM_ANSI
 70
     0
  3

  4
mm
  5

  6

  7

 40
1.0
 41
0.1
 42
0.05
 43
0.5
 44
0.1
 45
0.0
 46
0.0
 47
0.1
 48
0.1
140
0.12
141
0.0
142
0.0
143
25.399999999999999
144
1.0
145
0.0
146
0.71
147
0.06
 71
     0
 72
     0
 73
     1
 74
     1
 75
     0
 76
     0
 77
     0
 78
     7
170
     0
171
     2
172
     0
173
     0
174
     0
175
     0
176
   256
177
   256
178
     2
  0
DIMSTYLE
  2
AM_ANSI$3
 70
     0
  3

  4
mm
  5

  6

  7

 40
1.0
 41
0.1
 42
0.05
 43
0.5
 44
0.1
 45
0.0
 46
0.0
 47
0.1
 48
0.1
140
0.12
141
0.0
142
0.0
143
25.399999999999999
144
1.0
145
0.0
146
0.71
147
0.06
 71
     0
 72
     0
 73
     1
 74
     1
 75
     0
 76
     0
 77
     0
 78
     7
170
     0
171
     2
172
     0
173
     0
174
     0
175
     0
176
   256
177
   256
178
     2
  0
DIMSTYLE
  2
AM_ANSI$4
 70
     0
  3

  4
mm
  5

  6

  7

 40
1.0
 41
0.1
 42
0.05
 43
0.5
 44
0.1
 45
0.0
 46
0.0
 47
0.1
 48
0.1
140
0.12
141
0.0
142
0.0
143
25.399999999999999
144
1.0
145
0.0
146
0.71
147
0.06
 71
     0
 72
     0
 73
     1
 74
     1
 75
     0
 76
     0
 77
     0
 78
     7
170
     0
171
     2
172
     0
173
     0
174
     0
175
     0
176
   256
177
   256
178
     2
  0
DIMSTYLE
  2
AM_ANSI$7
 70
     0
  3

  4
mm
  5

  6

  7

 40
1.0
 41
0.1
 42
0.05
 43
0.5
 44
0.1
 45
0.0
 46
0.0
 47
0.1
 48
0.1
140
0.24
141
0.0
142
0.0
143
25.399999999999999
144
1.0
145
0.0
146
0.71
147
0.06
 71
     0
 72
     0
 73
     1
 74
     1
 75
     0
 76
     0
 77
     0
 78
     7
170
     0
171
     2
172
     0
173
     0
174
     0
175
     0
176
   256
177
   256
178
     2
  0
DIMSTYLE
  2
AM_ANSI$SF
 70
     0
  3

  4
mm
  5

  6

  7

 40
1.0
 41
0.1
 42
0.05
 43
0.5
 44
0.1
 45
0.0
 46
0.0
 47
0.1
 48
0.1
140
0.12
141
0.0
142
0.0
143
25.399999999999999
144
1.0
145
0.0
146
0.71
147
0.06
 71
     0
 72
     0
 73
     1
 74
     1
 75
     1
 76
     1
 77
     0
 78
     7
170
     0
171
     2
172
     0
173
     0
174
     0
175
     0
176
   256
177
   256
178
     2
  0
DIMSTYLE
  2
AM_ANSI$SH
 70
     0
  3

  4
mm
  5

  6
GENAXEH
  7

 40
1.0
 41
0.1
 42
0.05
 43
0.5
 44
0.1
 45
0.0
 46
0.0
 47
0.1
 48
0.1
140
0.12
141
0.0
142
0.0
143
25.399999999999999
144
1.0
145
0.0
146
0.71
147
0.06
 71
     0
 72
     0
 73
     1
 74
     1
 75
     1
 76
     1
 77
     0
 78
     7
170
     0
171
     2
172
     0
173
     1
174
     0
175
     0
176
   256
177
   256
178
     2
  0
ENDTAB
  0
ENDSEC
  0
SECTION
  2
BLOCKS
  0
BLOCK
  8
0
  2
$MODEL_SPACE
 70
     0
 10
0.0
 20
0.0
 30
0.0
  3
$MODEL_SPACE
  1

  0
ENDBLK
  5
20
  8
0
  0
BLOCK
 67
     1
  8
0
  2
$PAPER_SPACE
 70
     0
 10
0.0
 20
0.0
 30
0.0
  3
$PAPER_SPACE
  1

  0
ENDBLK
  5
1C
 67
     1
  8
0
  0
BLOCK
  8
0
  2
*D0
 70
     1
 10
0.0
 20
0.0
 30
0.0
  3
*D0
  1

  0
LINE
  5
1313
  8
1
  6
CONTINUOUS
 62
     0
 10
277.38475020833692
 20
44.136250624971268
 30
0.0
 11
277.38475020833692
 21
26.843754359665152
 31
0.0
  0
LINE
  5
1314
  8
1
  6
CONTINUOUS
 62
     0
 10
281.88475020833681
 20
44.198751359665152
 30
0.0
 11
281.88475020833681
 21
26.843754359665152
 31
0.0
  0
LINE
  5
1315
  8
1
  6
CONTINUOUS
 62
     7
 10
274.38475020833692
 20
27.023754359665151
 30
0.0
 11
271.38475020833692
 21
27.023754359665151
 31
0.0
  0
LINE
  5
1316
  8
1
  6
CONTINUOUS
 62
     7
 10
284.88475020833692
 20
27.023754359665151
 30
0.0
 11
287.88475020833692
 21
27.023754359665151
 31
0.0
  0
SOLID
  5
1317
  8
1
  6
CONTINUOUS
 62
     7
 10
274.38475020833692
 20
27.523754359665151
 30
0.0
 11
274.38475020833692
 21
26.523754359665151
 31
0.0
 12
277.38475020833692
 22
27.023754359665151
 32
0.0
 13
277.38475020833692
 23
27.023754359665151
 33
0.0
  0
SOLID
  5
1318
  8
1
  6
CONTINUOUS
 62
     7
 10
284.88475020833692
 20
27.523754359665151
 30
0.0
 11
284.88475020833692
 21
26.523754359665151
 31
0.0
 12
281.88475020833681
 22
27.023754359665151
 32
0.0
 13
281.88475020833681
 23
27.023754359665151
 33
0.0
  0
INSERT
  5
1319
  8
5
  6
CONTINUOUS
  2
*U42
 10
0.0
 20
0.0
 30
0.0
  0
POINT
  5
131A
  8
DEFPOINTS
  6
CONTINUOUS
 62
     0
 10
277.38475020833692
 20
44.198750624971261
 30
0.0
  0
POINT
  5
131B
  8
DEFPOINTS
  6
CONTINUOUS
 62
     0
 10
281.88475020833681
 20
44.261251359665152
 30
0.0
  0
POINT
  5
131C
  8
DEFPOINTS
  6
CONTINUOUS
 62
     0
 10
281.88475020833681
 20
27.023754359665151
 30
0.0
  0
ENDBLK
  5
517
  8
0
  0
BLOCK
  8
0
  2
*D1
 70
     1
 10
0.0
 20
0.0
 30
0.0
  3
*D1
  1

  0
LINE
  5
1363
  8
1
  6
CONTINUOUS
 62
     0
 10
281.88475020833681
 20
44.323751359665152
 30
0.0
 11
281.88475020833681
 21
59.87875335966514
 31
0.0
  0
LINE
  5
1364
  8
1
  6
CONTINUOUS
 62
     0
 10
286.38475020833692
 20
44.261250992318203
 30
0.0
 11
286.38475020833692
 21
59.87875335966514
 31
0.0
  0
LINE
  5
1365
  8
1
  6
CONTINUOUS
 62
     7
 10
278.88475020833692
 20
59.698753359665147
 30
0.0
 11
275.88475020833692
 21
59.698753359665147
 31
0.0
  0
LINE
  5
1366
  8
1
  6
CONTINUOUS
 62
     7
 10
289.38475020833692
 20
59.698753359665147
 30
0.0
 11
292.38475020833681
 21
59.698753359665147
 31
0.0
  0
SOLID
  5
1367
  8
1
  6
CONTINUOUS
 62
     7
 10
278.88475020833692
 20
60.19875335966514
 30
0.0
 11
278.88475020833692
 21
59.198753359665147
 31
0.0
 12
281.88475020833681
 22
59.698753359665147
 32
0.0
 13
281.88475020833681
 23
59.698753359665147
 33
0.0
  0
SOLID
  5
1368
  8
1
  6
CONTINUOUS
 62
     7
 10
289.38475020833692
 20
60.19875335966514
 30
0.0
 11
289.38475020833692
 21
59.198753359665147
 31
0.0
 12
286.38475020833692
 22
59.698753359665147
 32
0.0
 13
286.38475020833692
 23
59.698753359665147
 33
0.0
  0
INSERT
  5
1369
  8
5
  6
CONTINUOUS
  2
*U50
 10
0.0
 20
0.0
 30
0.0
  0
POINT
  5
136A
  8
DEFPOINTS
  6
CONTINUOUS
 62
     0
 10
281.88475020833681
 20
44.261251359665152
 30
0.0
  0
POINT
  5
136B
  8
DEFPOINTS
  6
CONTINUOUS
 62
     0
 10
286.38475020833692
 20
44.19875099231821
 30
0.0
  0
POINT
  5
136C
  8
DEFPOINTS
  6
CONTINUOUS
 62
     0
 10
286.38475020833692
 20
59.698753359665147
 30
0.0
  0
ENDBLK
  5
525
  8
0
  0
BLOCK
  8
0
  2
*D2
 70
     1
 10
0.0
 20
0.0
 30
0.0
  3
*D2
  1

  0
LINE
  5
1954
  8
5
  6
CONTINUOUS
 62
     0
 10
304.38475020833692
 20
44.261251359665152
 30
0.0
 11
304.38475020833692
 21
59.619402108957608
 31
0.0
  0
LINE
  5
1955
  8
5
  6
CONTINUOUS
 62
     0
 10
308.88475020833692
 20
44.26125335966514
 30
0.0
 11
308.88475020833692
 21
59.619402108957608
 31
0.0
  0
LINE
  5
1956
  8
5
  6
CONTINUOUS
 62
     7
 10
301.38475020833692
 20
59.439402108957601
 30
0.0
 11
298.38475020833692
 21
59.439402108957601
 31
0.0
  0
LINE
  5
1957
  8
5
  6
CONTINUOUS
 62
     7
 10
311.88475020833692
 20
59.439402108957601
 30
0.0
 11
314.88475020833692
 21
59.439402108957601
 31
0.0
  0
SOLID
  5
1958
  8
5
  6
CONTINUOUS
 62
     7
 10
301.38475020833692
 20
59.939402108957609
 30
0.0
 11
301.38475020833692
 21
58.939402108957609
 31
0.0
 12
304.38475020833692
 22
59.439402108957601
 32
0.0
 13
304.38475020833692
 23
59.439402108957601
 33
0.0
  0
SOLID
  5
1959
  8
5
  6
CONTINUOUS
 62
     7
 10
311.88475020833692
 20
59.939402108957609
 30
0.0
 11
311.88475020833692
 21
58.939402108957609
 31
0.0
 12
308.88475020833692
 22
59.439402108957601
 32
0.0
 13
308.88475020833692
 23
59.439402108957601
 33
0.0
  0
TEXT
  8
5
  40
3
  5
19E2
  62
7
  72
0
  71
0
 10
311.975
 20
54.1294
 30
0.000000
  1
4.5
  0
POINT
  5
195B
  8
DEFPOINTS
  6
CONTINUOUS
 62
     0
 10
304.38475020833692
 20
44.198751359665152
 30
0.0
  0
POINT
  5
195C
  8
DEFPOINTS
  6
CONTINUOUS
 62
     0
 10
308.88475020833692
 20
44.198753359665147
 30
0.0
  0
POINT
  5
195D
  8
DEFPOINTS
  6
CONTINUOUS
 62
     0
 10
308.88475020833692
 20
59.439402108957601
 30
0.0
  0
ENDBLK
  5
583
  8
0
  0
BLOCK
  8
0
  2
*D3
 70
     1
 10
0.0
 20
0.0
 30
0.0
  3
*D3
  1

  0
LINE
  5
134F
  8
5
 62
     0
 10
286.38475020833692
 20
44.261251359665152
 30
0.0
 11
286.38475020833692
 21
82.378753359665154
 31
0.0
  0
LINE
  5
1350
  8
5
 62
     0
 10
304.38475020833692
 20
44.261251359665152
 30
0.0
 11
304.38475020833692
 21
82.378753359665154
 31
0.0
  0
LINE
  5
1351
  8
5
 62
     7
 10
289.38475020833692
 20
82.198753359665147
 30
0.0
 11
293.29475020833689
 21
82.198753359665147
 31
0.0
  0
LINE
  5
1352
  8
5
 62
     7
 10
301.38475020833692
 20
82.198753359665147
 30
0.0
 11
297.47475020833679
 21
82.198753359665147
 31
0.0
  0
SOLID
  5
1353
  8
5
 62
     7
 10
289.38475020833692
 20
82.698753359665147
 30
0.0
 11
289.38475020833692
 21
81.698753359665133
 31
0.0
 12
286.38475020833692
 22
82.198753359665147
 32
0.0
 13
286.38475020833692
 23
82.198753359665147
 33
0.0
  0
SOLID
  5
1354
  8
5
 62
     7
 10
301.38475020833692
 20
82.698753359665147
 30
0.0
 11
301.38475020833692
 21
81.698753359665133
 31
0.0
 12
304.38475020833692
 22
82.198753359665147
 32
0.0
 13
304.38475020833692
 23
82.198753359665147
 33
0.0
  0
INSERT
  5
1355
  8
5
  6
CONTINUOUS
  2
*U48
 10
0.0
 20
0.0
 30
0.0
  0
POINT
  5
1356
  8
DEFPOINTS
 62
     0
 10
286.38475020833692
 20
44.198751359665152
 30
0.0
  0
POINT
  5
1357
  8
DEFPOINTS
 62
     0
 10
304.38475020833692
 20
44.198751359665152
 30
0.0
  0
POINT
  5
1358
  8
DEFPOINTS
 62
     0
 10
304.38475020833692
 20
82.198753359665147
 30
0.0
  0
ENDBLK
  5
5C2
  8
0
  0
BLOCK
  8
0
  2
*D4
 70
     1
 10
0.0
 20
0.0
 30
0.0
  3
*D4
  1

  0
LINE
  5
13A6
  8
5
 62
     0
 10
383.38475020833692
 20
74.261253359665133
 30
0.0
 11
383.38475020833692
 21
107.1287533596651
 31
0.0
  0
LINE
  5
13A7
  8
5
 62
     0
 10
420.38475020833681
 20
74.261253359665133
 30
0.0
 11
420.38475020833681
 21
107.1287533596651
 31
0.0
  0
LINE
  5
13A8
  8
5
 62
     7
 10
386.38475020833692
 20
106.9487533596651
 30
0.0
 11
399.29475020833689
 21
106.9487533596651
 31
0.0
  0
LINE
  5
13A9
  8
5
 62
     7
 10
417.38475020833681
 20
106.9487533596651
 30
0.0
 11
404.47475020833679
 21
106.9487533596651
 31
0.0
  0
SOLID
  5
13AA
  8
5
 62
     7
 10
386.38475020833692
 20
107.4487533596651
 30
0.0
 11
386.38475020833692
 21
106.4487533596651
 31
0.0
 12
383.38475020833692
 22
106.9487533596651
 32
0.0
 13
383.38475020833692
 23
106.9487533596651
 33
0.0
  0
SOLID
  5
13AB
  8
5
 62
     7
 10
417.38475020833681
 20
107.4487533596651
 30
0.0
 11
417.38475020833681
 21
106.4487533596651
 31
0.0
 12
420.38475020833681
 22
106.9487533596651
 32
0.0
 13
420.38475020833681
 23
106.9487533596651
 33
0.0
  0
INSERT
  5
13AC
  8
5
  6
CONTINUOUS
  2
*U56
 10
0.0
 20
0.0
 30
0.0
  0
POINT
  5
13AD
  8
DEFPOINTS
 62
     0
 10
383.38475020833692
 20
74.198753359665147
 30
0.0
  0
POINT
  5
13AE
  8
DEFPOINTS
 62
     0
 10
420.38475020833681
 20
74.198753359665147
 30
0.0
  0
POINT
  5
13AF
  8
DEFPOINTS
 62
     0
 10
420.38475020833681
 20
106.9487533596651
 30
0.0
  0
ENDBLK
  5
5D9
  8
0
  0
BLOCK
  8
0
  2
*D5
 70
     1
 10
0.0
 20
0.0
 30
0.0
  3
*D5
  1

  0
LINE
  5
13B0
  8
5
 62
     0
 10
336.38475020833692
 20
53.261253359665147
 30
0.0
 11
336.38475020833692
 21
82.378753359665154
 31
0.0
  0
LINE
  5
13B1
  8
5
 62
     0
 10
344.38475020833681
 20
70.261253359665147
 30
0.0
 11
344.38475020833681
 21
82.378753359665154
 31
0.0
  0
LINE
  5
13B2
  8
5
 62
     7
 10
339.38475020833692
 20
82.198753359665147
 30
0.0
 11
341.38475020833692
 21
82.198753359665147
 31
0.0
  0
LINE
  5
13B3
  8
5
 62
     7
 10
344.38475020833681
 20
82.198753359665147
 30
0.0
 11
347.38475020833692
 21
82.198753359665147
 31
0.0
  0
SOLID
  5
13B4
  8
5
 62
     7
 10
339.38475020833692
 20
82.698753359665147
 30
0.0
 11
339.38475020833692
 21
81.698753359665133
 31
0.0
 12
336.38475020833692
 22
82.198753359665147
 32
0.0
 13
336.38475020833692
 23
82.198753359665147
 33
0.0
  0
SOLID
  5
13B5
  8
5
 62
     7
 10
341.38475020833692
 20
82.698753359665147
 30
0.0
 11
341.38475020833692
 21
81.698753359665133
 31
0.0
 12
344.38475020833681
 22
82.198753359665147
 32
0.0
 13
344.38475020833681
 23
82.198753359665147
 33
0.0
  0
INSERT
  5
13B6
  8
5
  6
CONTINUOUS
  2
*U57
 10
0.0
 20
0.0
 30
0.0
  0
POINT
  5
13B7
  8
DEFPOINTS
 62
     0
 10
336.38475020833692
 20
53.19875335966514
 30
0.0
  0
POINT
  5
13B8
  8
DEFPOINTS
 62
     0
 10
344.38475020833681
 20
70.198753359665133
 30
0.0
  0
POINT
  5
13B9
  8
DEFPOINTS
 62
     0
 10
344.38475020833681
 20
82.198753359665147
 30
0.0
  0
ENDBLK
  5
5F1
  8
0
  0
BLOCK
  8
0
  2
*D6
 70
     1
 10
0.0
 20
0.0
 30
0.0
  3
*D6
  1

  0
LINE
  5
13BA
  8
5
 62
     0
 10
322.38475020833692
 20
44.26125335966514
 30
0.0
 11
322.38475020833692
 21
82.378753359665154
 31
0.0
  0
LINE
  5
13BB
  8
5
 62
     0
 10
336.38475020833692
 20
53.261253359665147
 30
0.0
 11
336.38475020833692
 21
82.378753359665154
 31
0.0
  0
LINE
  5
13BC
  8
5
 62
     7
 10
325.38475020833692
 20
82.198753359665147
 30
0.0
 11
327.29475020833689
 21
82.198753359665147
 31
0.0
  0
LINE
  5
13BD
  8
5
 62
     7
 10
333.38475020833692
 20
82.198753359665147
 30
0.0
 11
331.47475020833679
 21
82.198753359665147
 31
0.0
  0
SOLID
  5
13BE
  8
5
 62
     7
 10
325.38475020833692
 20
82.698753359665147
 30
0.0
 11
325.38475020833692
 21
81.698753359665133
 31
0.0
 12
322.38475020833692
 22
82.198753359665147
 32
0.0
 13
322.38475020833692
 23
82.198753359665147
 33
0.0
  0
SOLID
  5
13BF
  8
5
 62
     7
 10
333.38475020833692
 20
82.698753359665147
 30
0.0
 11
333.38475020833692
 21
81.698753359665133
 31
0.0
 12
336.38475020833692
 22
82.198753359665147
 32
0.0
 13
336.38475020833692
 23
82.198753359665147
 33
0.0
  0
INSERT
  5
13C0
  8
5
  6
CONTINUOUS
  2
*U58
 10
0.0
 20
0.0
 30
0.0
  0
POINT
  5
13C1
  8
DEFPOINTS
 62
     0
 10
322.38475020833692
 20
44.198753359665147
 30
0.0
  0
POINT
  5
13C2
  8
DEFPOINTS
 62
     0
 10
336.38475020833692
 20
53.19875335966514
 30
0.0
  0
POINT
  5
13C3
  8
DEFPOINTS
 62
     0
 10
336.38475020833692
 20
82.198753359665147
 30
0.0
  0
ENDBLK
  5
5FE
  8
0
  0
BLOCK
  8
0
  2
*D7
 70
     1
 10
0.0
 20
0.0
 30
0.0
  3
*D7
  1

  0
LINE
  5
13CB
  8
5
 62
     0
 10
383.32225020833692
 20
60.19875335966514
 30
0.0
 11
375.20475020833692
 21
60.19875335966514
 31
0.0
  0
LINE
  5
13CC
  8
5
 62
     0
 10
383.32225020833692
 20
64.698753359665147
 30
0.0
 11
375.20475020833692
 21
64.698753359665147
 31
0.0
  0
LINE
  5
13CD
  8
5
 62
     7
 10
375.38475020833692
 20
57.198753359665147
 30
0.0
 11
375.38475020833692
 21
54.198753359665147
 31
0.0
  0
LINE
  5
13CE
  8
5
 62
     7
 10
375.38475020833692
 20
67.698753359665133
 30
0.0
 11
375.38475020833692
 21
70.698753359665133
 31
0.0
  0
SOLID
  5
13CF
  8
5
 62
     7
 10
374.88475020833692
 20
57.198753359665147
 30
0.0
 11
375.88475020833692
 21
57.198753359665147
 31
0.0
 12
375.38475020833692
 22
60.19875335966514
 32
0.0
 13
375.38475020833692
 23
60.19875335966514
 33
0.0
  0
SOLID
  5
13D0
  8
5
 62
     7
 10
374.88475020833692
 20
67.698753359665133
 30
0.0
 11
375.88475020833692
 21
67.698753359665133
 31
0.0
 12
375.38475020833692
 22
64.698753359665147
 32
0.0
 13
375.38475020833692
 23
64.698753359665147
 33
0.0
  0
INSERT
  5
13D1
  8
5
  6
CONTINUOUS
  2
*U60
 10
0.0
 20
0.0
 30
0.0
  0
POINT
  5
13D2
  8
DEFPOINTS
 62
     0
 10
383.38475020833692
 20
60.19875335966514
 30
0.0
  0
POINT
  5
13D3
  8
DEFPOINTS
 62
     0
 10
383.38475020833692
 20
64.698753359665147
 30
0.0
  0
POINT
  5
13D4
  8
DEFPOINTS
 62
     0
 10
375.38475020833692
 20
64.698753359665147
 30
0.0
  0
ENDBLK
  5
60B
  8
0
  0
BLOCK
  8
0
  2
*D8
 70
     1
 10
0.0
 20
0.0
 30
0.0
  3
*D8
  1

  0
LINE
  5
139C
  8
5
 62
     0
 10
389.13475020833692
 20
24.261253359665151
 30
0.0
 11
389.13475020833692
 21
34.878753359665147
 31
0.0
  0
LINE
  5
139D
  8
5
 62
     0
 10
416.63475020833681
 20
18.261253359665151
 30
0.0
 11
416.63475020833681
 21
34.878753359665147
 31
0.0
  0
LINE
  5
139E
  8
5
 62
     7
 10
392.13475020833692
 20
34.698753359665147
 30
0.0
 11
398.29475020833689
 21
34.698753359665147
 31
0.0
  0
LINE
  5
139F
  8
5
 62
     7
 10
413.63475020833681
 20
34.698753359665147
 30
0.0
 11
407.47475020833679
 21
34.698753359665147
 31
0.0
  0
SOLID
  5
13A0
  8
5
 62
     7
 10
392.13475020833692
 20
35.198753359665147
 30
0.0
 11
392.13475020833692
 21
34.198753359665147
 31
0.0
 12
389.13475020833692
 22
34.698753359665147
 32
0.0
 13
389.13475020833692
 23
34.698753359665147
 33
0.0
  0
SOLID
  5
13A1
  8
5
 62
     7
 10
413.63475020833681
 20
35.198753359665147
 30
0.0
 11
413.63475020833681
 21
34.198753359665147
 31
0.0
 12
416.63475020833681
 22
34.698753359665147
 32
0.0
 13
416.63475020833681
 23
34.698753359665147
 33
0.0
  0
INSERT
  5
13A2
  8
5
  6
CONTINUOUS
  2
*U55
 10
0.0
 20
0.0
 30
0.0
  0
POINT
  5
13A3
  8
DEFPOINTS
 62
     0
 10
389.13475020833692
 20
24.198753359665151
 30
0.0
  0
POINT
  5
13A4
  8
DEFPOINTS
 62
     0
 10
416.63475020833681
 20
18.19875335966514
 30
0.0
  0
POINT
  5
13A5
  8
DEFPOINTS
 62
     0
 10
416.63475020833681
 20
34.698753359665147
 30
0.0
  0
ENDBLK
  5
618
  8
0
  0
BLOCK
  8
0
  2
*D9
 70
     1
 10
0.0
 20
0.0
 30
0.0
  3
*D9
  1

  0
LINE
  5
137E
  8
5
 62
     0
 10
383.63475020833681
 20
30.261253359665151
 30
0.0
 11
383.63475020833681
 21
42.37875335966514
 31
0.0
  0
LINE
  5
137F
  8
5
 62
     0
 10
389.13475020833692
 20
32.761253359665147
 30
0.0
 11
389.13475020833692
 21
42.37875335966514
 31
0.0
  0
LINE
  5
1380
  8
5
 62
     7
 10
380.63475020833692
 20
42.198753359665147
 30
0.0
 11
377.63475020833692
 21
42.198753359665147
 31
0.0
  0
LINE
  5
1381
  8
5
 62
     7
 10
392.13475020833692
 20
42.198753359665147
 30
0.0
 11
395.13475020833692
 21
42.198753359665147
 31
0.0
  0
SOLID
  5
1382
  8
5
 62
     7
 10
380.63475020833692
 20
42.69875335966514
 30
0.0
 11
380.63475020833692
 21
41.698753359665147
 31
0.0
 12
383.63475020833681
 22
42.198753359665147
 32
0.0
 13
383.63475020833681
 23
42.198753359665147
 33
0.0
  0
SOLID
  5
1383
  8
5
 62
     7
 10
392.13475020833692
 20
42.69875335966514
 30
0.0
 11
392.13475020833692
 21
41.698753359665147
 31
0.0
 12
389.13475020833692
 22
42.198753359665147
 32
0.0
 13
389.13475020833692
 23
42.198753359665147
 33
0.0
  0
INSERT
  5
1384
  8
5
  6
CONTINUOUS
  2
*U52
 10
0.0
 20
0.0
 30
0.0
  0
POINT
  5
1385
  8
DEFPOINTS
 62
     0
 10
383.63475020833681
 20
30.198753359665151
 30
0.0
  0
POINT
  5
1386
  8
DEFPOINTS
 62
     0
 10
389.13475020833692
 20
32.698753359665147
 30
0.0
  0
POINT
  5
1387
  8
DEFPOINTS
 62
     0
 10
389.13475020833692
 20
42.198753359665147
 30
0.0
  0
ENDBLK
  5
625
  8
0
  0
BLOCK
  8
0
  2
*D10
 70
     1
 10
0.0
 20
0.0
 30
0.0
  3
*D10
  1

  0
LINE
  5
1388
  8
5
 62
     0
 10
336.44725020833692
 20
27.198753359665151
 30
0.0
 11
363.06475020833687
 21
27.19875335966514
 31
0.0
  0
LINE
  5
1389
  8
5
 62
     0
 10
336.44725020833692
 20
53.19875335966514
 30
0.0
 11
363.06475020833687
 21
53.19875335966514
 31
0.0
  0
LINE
  5
138A
  8
5
 62
     7
 10
362.88475020833692
 20
30.19875335966514
 30
0.0
 11
362.88475020833692
 21
37.608753359665151
 31
0.0
  0
LINE
  5
138B
  8
5
 62
     7
 10
362.88475020833692
 20
50.19875335966514
 30
0.0
 11
362.88475020833692
 21
42.788753359665137
 31
0.0
  0
SOLID
  5
138C
  8
5
 62
     7
 10
362.38475020833692
 20
30.19875335966514
 30
0.0
 11
363.38475020833692
 21
30.19875335966514
 31
0.0
 12
362.88475020833692
 22
27.19875335966514
 32
0.0
 13
362.88475020833692
 23
27.19875335966514
 33
0.0
  0
SOLID
  5
138D
  8
5
 62
     7
 10
362.38475020833692
 20
50.19875335966514
 30
0.0
 11
363.38475020833692
 21
50.19875335966514
 31
0.0
 12
362.88475020833692
 22
53.19875335966514
 32
0.0
 13
362.88475020833692
 23
53.19875335966514
 33
0.0
  0
INSERT
  5
138E
  8
5
  6
CONTINUOUS
  2
*U53
 10
0.0
 20
0.0
 30
0.0
  0
POINT
  5
138F
  8
DEFPOINTS
 62
     0
 10
336.38475020833692
 20
27.198753359665151
 30
0.0
  0
POINT
  5
1390
  8
DEFPOINTS
 62
     0
 10
336.38475020833692
 20
53.19875335966514
 30
0.0
  0
POINT
  5
1391
  8
DEFPOINTS
 62
     0
 10
362.88475020833692
 20
53.19875335966514
 30
0.0
  0
ENDBLK
  5
632
  8
0
  0
BLOCK
  8
0
  2
*D11
 70
     1
 10
0.0
 20
0.0
 30
0.0
  3
*D11
  1

  0
LINE
  5
1392
  8
5
 62
     0
 10
336.44725020833692
 20
35.198753359665147
 30
0.0
 11
357.31475020833687
 21
35.198753359665147
 31
0.0
  0
LINE
  5
1393
  8
5
 62
     0
 10
336.44725020833692
 20
45.19875335966514
 30
0.0
 11
357.31475020833687
 21
45.19875335966514
 31
0.0
  0
LINE
  5
1394
  8
5
 62
     7
 10
357.13475020833692
 20
38.198753359665147
 30
0.0
 11
357.13475020833692
 21
38.358753359665151
 31
0.0
  0
LINE
  5
1395
  8
5
 62
     7
 10
357.13475020833692
 20
42.198753359665147
 30
0.0
 11
357.13475020833692
 21
42.038753359665151
 31
0.0
  0
SOLID
  5
1396
  8
5
 62
     7
 10
356.63475020833692
 20
38.198753359665147
 30
0.0
 11
357.63475020833692
 21
38.198753359665147
 31
0.0
 12
357.13475020833692
 22
35.198753359665147
 32
0.0
 13
357.13475020833692
 23
35.198753359665147
 33
0.0
  0
SOLID
  5
1397
  8
5
 62
     7
 10
356.63475020833692
 20
42.198753359665147
 30
0.0
 11
357.63475020833692
 21
42.198753359665147
 31
0.0
 12
357.13475020833692
 22
45.19875335966514
 32
0.0
 13
357.13475020833692
 23
45.19875335966514
 33
0.0
  0
INSERT
  5
1398
  8
5
  6
CONTINUOUS
  2
*U54
 10
0.0
 20
0.0
 30
0.0
  0
POINT
  5
1399
  8
DEFPOINTS
 62
     0
 10
336.38475020833692
 20
35.198753359665147
 30
0.0
  0
POINT
  5
139A
  8
DEFPOINTS
 62
     0
 10
336.38475020833692
 20
45.19875335966514
 30
0.0
  0
POINT
  5
139B
  8
DEFPOINTS
 62
     0
 10
357.13475020833692
 20
45.19875335966514
 30
0.0
  0
ENDBLK
  5
63F
  8
0
  0
BLOCK
  8
0
  2
*D12
 70
     1
 10
0.0
 20
0.0
 30
0.0
  3
*D12
  1

  0
LINE
  5
1359
  8
5
 62
     0
 10
262.38475020833692
 20
44.261249359665143
 30
0.0
 11
262.38475020833692
 21
82.378753359665154
 31
0.0
  0
LINE
  5
135A
  8
5
 62
     0
 10
286.38475020833692
 20
44.261251359665152
 30
0.0
 11
286.38475020833692
 21
82.378753359665154
 31
0.0
  0
LINE
  5
135B
  8
5
 62
     7
 10
265.38475020833692
 20
82.198753359665147
 30
0.0
 11
271.79475020833689
 21
82.198753359665147
 31
0.0
  0
LINE
  5
135C
  8
5
 62
     7
 10
283.38475020833692
 20
82.198753359665147
 30
0.0
 11
276.97475020833679
 21
82.198753359665147
 31
0.0
  0
SOLID
  5
135D
  8
5
 62
     7
 10
265.38475020833692
 20
82.698753359665147
 30
0.0
 11
265.38475020833692
 21
81.698753359665133
 31
0.0
 12
262.38475020833692
 22
82.198753359665147
 32
0.0
 13
262.38475020833692
 23
82.198753359665147
 33
0.0
  0
SOLID
  5
135E
  8
5
 62
     7
 10
283.38475020833692
 20
82.698753359665147
 30
0.0
 11
283.38475020833692
 21
81.698753359665133
 31
0.0
 12
286.38475020833692
 22
82.198753359665147
 32
0.0
 13
286.38475020833692
 23
82.198753359665147
 33
0.0
  0
INSERT
  5
135F
  8
5
  6
CONTINUOUS
  2
*U49
 10
0.0
 20
0.0
 30
0.0
  0
POINT
  5
1360
  8
DEFPOINTS
 62
     0
 10
262.38475020833692
 20
44.198749359665143
 30
0.0
  0
POINT
  5
1361
  8
DEFPOINTS
 62
     0
 10
286.38475020833692
 20
44.198751359665152
 30
0.0
  0
POINT
  5
1362
  8
DEFPOINTS
 62
     0
 10
286.38475020833692
 20
82.198753359665147
 30
0.0
  0
ENDBLK
  5
64C
  8
0
  0
BLOCK
  8
0
  2
*D13
 70
     1
 10
0.0
 20
0.0
 30
0.0
  3
*D13
  1

  0
LINE
  5
1345
  8
5
 62
     0
 10
252.3222502083369
 20
64.198753359665147
 30
0.0
 11
237.70475020833689
 21
64.198753359665147
 31
0.0
  0
LINE
  5
1346
  8
5
 62
     0
 10
259.32225020833692
 20
71.698753359665147
 30
0.0
 11
237.70475020833689
 21
71.698753359665147
 31
0.0
  0
LINE
  5
1347
  8
5
 62
     7
 10
237.8847502083369
 20
67.198753359665147
 30
0.0
 11
237.8847502083369
 21
68.698753359665147
 31
0.0
  0
LINE
  5
1348
  8
5
 62
     7
 10
237.8847502083369
 20
71.698753359665147
 30
0.0
 11
237.8847502083369
 21
74.698753359665147
 31
0.0
  0
SOLID
  5
1349
  8
5
 62
     7
 10
237.3847502083369
 20
67.198753359665147
 30
0.0
 11
238.3847502083369
 21
67.198753359665147
 31
0.0
 12
237.8847502083369
 22
64.198753359665147
 32
0.0
 13
237.8847502083369
 23
64.198753359665147
 33
0.0
  0
SOLID
  5
134A
  8
5
 62
     7
 10
237.3847502083369
 20
68.698753359665147
 30
0.0
 11
238.3847502083369
 21
68.698753359665147
 31
0.0
 12
237.8847502083369
 22
71.698753359665147
 32
0.0
 13
237.8847502083369
 23
71.698753359665147
 33
0.0
  0
INSERT
  5
134B
  8
5
  6
CONTINUOUS
  2
*U47
 10
0.0
 20
0.0
 30
0.0
  0
POINT
  5
134C
  8
DEFPOINTS
 62
     0
 10
252.3847502083369
 20
64.198753359665147
 30
0.0
  0
POINT
  5
134D
  8
DEFPOINTS
 62
     0
 10
259.38475020833692
 20
71.698753359665147
 30
0.0
  0
POINT
  5
134E
  8
DEFPOINTS
 62
     0
 10
237.8847502083369
 20
71.698753359665147
 30
0.0
  0
ENDBLK
  5
659
  8
0
  0
BLOCK
  8
0
  2
*D14
 70
     1
 10
0.0
 20
0.0
 30
0.0
  3
*D14
  1

  0
LINE
  5
131D
  8
5
 62
     0
 10
252.3222502083369
 20
12.198745359665139
 30
0.0
 11
218.2047502083368
 21
12.19874535966515
 31
0.0
  0
LINE
  5
131E
  8
5
 62
     0
 10
252.3222502083369
 20
76.198753359665147
 30
0.0
 11
218.2047502083368
 21
76.198753359665162
 31
0.0
  0
LINE
  5
131F
  8
5
 62
     7
 10
218.38475020833681
 20
15.19874535966516
 30
0.0
 11
218.38475020833681
 21
41.608749359665161
 31
0.0
  0
LINE
  5
1320
  8
5
 62
     7
 10
218.3847502083369
 20
73.198753359665162
 30
0.0
 11
218.38475020833681
 21
46.788749359665147
 31
0.0
  0
SOLID
  5
1321
  8
5
 62
     7
 10
217.88475020833681
 20
15.19874535966516
 30
0.0
 11
218.8847502083369
 21
15.19874535966516
 31
0.0
 12
218.38475020833681
 22
12.19874535966515
 32
0.0
 13
218.38475020833681
 23
12.19874535966515
 33
0.0
  0
SOLID
  5
1322
  8
5
 62
     7
 10
217.8847502083369
 20
73.198753359665162
 30
0.0
 11
218.8847502083369
 21
73.198753359665162
 31
0.0
 12
218.3847502083369
 22
76.198753359665162
 32
0.0
 13
218.3847502083369
 23
76.198753359665162
 33
0.0
  0
INSERT
  5
1323
  8
5
  6
CONTINUOUS
  2
*U43
 10
0.0
 20
0.0
 30
0.0
  0
POINT
  5
1324
  8
DEFPOINTS
 62
     0
 10
252.3847502083369
 20
12.198745359665139
 30
0.0
  0
POINT
  5
1325
  8
DEFPOINTS
 62
     0
 10
252.3847502083369
 20
76.198753359665147
 30
0.0
  0
POINT
  5
1326
  8
DEFPOINTS
 62
     0
 10
218.3847502083369
 20
76.198753359665162
 30
0.0
  0
ENDBLK
  5
666
  8
0
  0
BLOCK
  8
0
  2
*D15
 70
     1
 10
0.0
 20
0.0
 30
0.0
  3
*D15
  1

  0
LINE
  5
1327
  8
5
 62
     0
 10
259.32225020833692
 20
16.698753359665151
 30
0.0
 11
224.20475020833689
 21
16.698753359665162
 31
0.0
  0
LINE
  5
1328
  8
5
 62
     0
 10
259.32225020833692
 20
71.698753359665147
 30
0.0
 11
224.20475020833689
 21
71.698753359665147
 31
0.0
  0
LINE
  5
1329
  8
5
 62
     7
 10
224.38475020833681
 20
19.698753359665162
 30
0.0
 11
224.38475020833681
 21
41.608753359665151
 31
0.0
  0
LINE
  5
132A
  8
5
 62
     7
 10
224.3847502083369
 20
68.698753359665147
 30
0.0
 11
224.38475020833681
 21
46.788753359665151
 31
0.0
  0
SOLID
  5
132B
  8
5
 62
     7
 10
223.88475020833681
 20
19.698753359665162
 30
0.0
 11
224.88475020833681
 21
19.698753359665162
 31
0.0
 12
224.38475020833681
 22
16.698753359665162
 32
0.0
 13
224.38475020833681
 23
16.698753359665162
 33
0.0
  0
SOLID
  5
132C
  8
5
 62
     7
 10
223.8847502083369
 20
68.698753359665162
 30
0.0
 11
224.8847502083369
 21
68.698753359665147
 31
0.0
 12
224.3847502083369
 22
71.698753359665147
 32
0.0
 13
224.3847502083369
 23
71.698753359665147
 33
0.0
  0
INSERT
  5
132D
  8
5
  6
CONTINUOUS
  2
*U44
 10
0.0
 20
0.0
 30
0.0
  0
POINT
  5
132E
  8
DEFPOINTS
 62
     0
 10
259.38475020833692
 20
16.698753359665151
 30
0.0
  0
POINT
  5
132F
  8
DEFPOINTS
 62
     0
 10
259.38475020833692
 20
71.698753359665147
 30
0.0
  0
POINT
  5
1330
  8
DEFPOINTS
 62
     0
 10
224.3847502083369
 20
71.698753359665147
 30
0.0
  0
ENDBLK
  5
673
  8
0
  0
BLOCK
  8
0
  2
*D16
 70
     1
 10
0.0
 20
0.0
 30
0.0
  3
*D16
  1

  0
LINE
  5
1331
  8
5
 62
     0
 10
252.3222502083369
 20
31.948753359665151
 30
0.0
 11
237.7047502083368
 21
31.948753359665151
 31
0.0
  0
LINE
  5
1332
  8
5
 62
     0
 10
252.3222502083369
 20
64.198753359665147
 30
0.0
 11
237.70475020833689
 21
64.198753359665147
 31
0.0
  0
LINE
  5
1333
  8
5
 62
     7
 10
237.8847502083369
 20
34.948753359665147
 30
0.0
 11
237.8847502083369
 21
41.983753359665151
 31
0.0
  0
LINE
  5
1334
  8
5
 62
     7
 10
237.8847502083369
 20
61.198753359665147
 30
0.0
 11
237.8847502083369
 21
54.163753359665158
 31
0.0
  0
SOLID
  5
1335
  8
5
 62
     7
 10
237.38475020833681
 20
34.948753359665147
 30
0.0
 11
238.38475020833681
 21
34.948753359665147
 31
0.0
 12
237.8847502083369
 22
31.948753359665151
 32
0.0
 13
237.8847502083369
 23
31.948753359665151
 33
0.0
  0
SOLID
  5
1336
  8
5
 62
     7
 10
237.38475020833681
 20
61.198753359665147
 30
0.0
 11
238.38475020833681
 21
61.198753359665147
 31
0.0
 12
237.8847502083369
 22
64.198753359665147
 32
0.0
 13
237.8847502083369
 23
64.198753359665147
 33
0.0
  0
INSERT
  5
1337
  8
5
  6
CONTINUOUS
  2
*U45
 10
0.0
 20
0.0
 30
0.0
  0
POINT
  5
1338
  8
DEFPOINTS
 62
     0
 10
252.3847502083369
 20
31.948753359665151
 30
0.0
  0
POINT
  5
1339
  8
DEFPOINTS
 62
     0
 10
252.3847502083369
 20
64.198753359665147
 30
0.0
  0
POINT
  5
133A
  8
DEFPOINTS
 62
     0
 10
237.8847502083369
 20
64.198753359665147
 30
0.0
  0
ENDBLK
  5
680
  8
0
  0
BLOCK
  8
0
  2
*D17
 70
     1
 10
0.0
 20
0.0
 30
0.0
  3
*D17
  1

  0
LINE
  5
133B
  8
5
 62
     0
 10
250.9472502083369
 20
32.698753359665147
 30
0.0
 11
257.81475020833687
 21
32.698753359665147
 31
0.0
  0
LINE
  5
133C
  8
5
 62
     0
 10
250.9472502083369
 20
55.69874935966515
 30
0.0
 11
257.81475020833687
 21
55.69874935966515
 31
0.0
  0
LINE
  5
133D
  8
5
 62
     7
 10
257.63475020833692
 20
35.698753359665147
 30
0.0
 11
257.63475020833692
 21
41.608751359665149
 31
0.0
  0
LINE
  5
133E
  8
5
 62
     7
 10
257.63475020833692
 20
52.69874935966515
 30
0.0
 11
257.63475020833692
 21
46.788751359665149
 31
0.0
  0
SOLID
  5
133F
  8
5
 62
     7
 10
257.13475020833692
 20
35.698753359665147
 30
0.0
 11
258.13475020833692
 21
35.698753359665147
 31
0.0
 12
257.63475020833692
 22
32.698753359665147
 32
0.0
 13
257.63475020833692
 23
32.698753359665147
 33
0.0
  0
SOLID
  5
1340
  8
5
 62
     7
 10
257.13475020833692
 20
52.69874935966515
 30
0.0
 11
258.13475020833692
 21
52.69874935966515
 31
0.0
 12
257.63475020833692
 22
55.69874935966515
 32
0.0
 13
257.63475020833692
 23
55.69874935966515
 33
0.0
  0
INSERT
  5
1341
  8
5
  6
CONTINUOUS
  2
*U46
 10
0.0
 20
0.0
 30
0.0
  0
POINT
  5
1342
  8
DEFPOINTS
 62
     0
 10
250.8847502083369
 20
32.698753359665147
 30
0.0
  0
POINT
  5
1343
  8
DEFPOINTS
 62
     0
 10
250.8847502083369
 20
55.69874935966515
 30
0.0
  0
POINT
  5
1344
  8
DEFPOINTS
 62
     0
 10
257.63475020833692
 20
55.69874935966515
 30
0.0
  0
ENDBLK
  5
68D
  8
0
  0
BLOCK
  8
0
  2
*D18
 70
     1
 10
0.0
 20
0.0
 30
0.0
  3
*D18
  1

  0
LINE
  5
12EB
  8
5
 62
     0
 10
246.3847502083369
 20
70.261253359665147
 30
0.0
 11
246.3847502083369
 21
107.1287533596651
 31
0.0
  0
LINE
  5
12EC
  8
5
 62
     0
 10
344.38475020833681
 20
70.261253359665147
 30
0.0
 11
344.38475020833681
 21
107.1287533596651
 31
0.0
  0
LINE
  5
12ED
  8
5
 62
     7
 10
249.3847502083369
 20
106.9487533596651
 30
0.0
 11
292.79475020833689
 21
106.9487533596651
 31
0.0
  0
LINE
  5
12EE
  8
5
 62
     7
 10
341.38475020833692
 20
106.9487533596651
 30
0.0
 11
297.97475020833679
 21
106.9487533596651
 31
0.0
  0
SOLID
  5
12EF
  8
5
 62
     7
 10
249.3847502083369
 20
107.4487533596651
 30
0.0
 11
249.3847502083369
 21
106.4487533596651
 31
0.0
 12
246.3847502083369
 22
106.9487533596651
 32
0.0
 13
246.3847502083369
 23
106.9487533596651
 33
0.0
  0
SOLID
  5
12F0
  8
5
 62
     7
 10
341.38475020833692
 20
107.4487533596651
 30
0.0
 11
341.38475020833692
 21
106.4487533596651
 31
0.0
 12
344.38475020833681
 22
106.9487533596651
 32
0.0
 13
344.38475020833681
 23
106.9487533596651
 33
0.0
  0
INSERT
  5
12F1
  8
5
  6
CONTINUOUS
  2
*U38
 10
0.0
 20
0.0
 30
0.0
  0
POINT
  5
12F2
  8
DEFPOINTS
 62
     0
 10
246.3847502083369
 20
70.198753359665133
 30
0.0
  0
POINT
  5
12F3
  8
DEFPOINTS
 62
     0
 10
344.38475020833681
 20
70.198753359665133
 30
0.0
  0
POINT
  5
12F4
  8
DEFPOINTS
 62
     0
 10
344.38475020833681
 20
106.9487533596651
 30
0.0
  0
ENDBLK
  5
6A5
  8
0
  0
BLOCK
  8
0
  2
*D19
 70
     1
 10
0.0
 20
0.0
 30
0.0
  3
*D19
  1

  0
LINE
  5
12D7
  8
5
 62
     0
 10
252.3222502083369
 20
26.448753359665151
 30
0.0
 11
230.20475020833689
 21
26.448753359665162
 31
0.0
  0
LINE
  5
12D8
  8
5
 62
     0
 10
338.32225020833692
 20
61.94875335966514
 30
0.0
 11
230.20475020833689
 21
61.948753359665183
 31
0.0
  0
LINE
  5
12D9
  8
5
 62
     7
 10
230.3847502083369
 20
29.448753359665162
 30
0.0
 11
230.3847502083369
 21
41.608753359665158
 31
0.0
  0
LINE
  5
12DA
  8
5
 62
     7
 10
230.3847502083369
 20
58.948753359665183
 30
0.0
 11
230.3847502083369
 21
46.788753359665172
 31
0.0
  0
SOLID
  5
12DB
  8
5
 62
     7
 10
229.88475020833681
 20
29.448753359665162
 30
0.0
 11
230.8847502083369
 21
29.448753359665162
 31
0.0
 12
230.3847502083369
 22
26.448753359665162
 32
0.0
 13
230.3847502083369
 23
26.448753359665162
 33
0.0
  0
SOLID
  5
12DC
  8
5
 62
     7
 10
229.88475020833681
 20
58.948753359665183
 30
0.0
 11
230.8847502083369
 21
58.948753359665183
 31
0.0
 12
230.3847502083369
 22
61.948753359665183
 32
0.0
 13
230.3847502083369
 23
61.948753359665183
 33
0.0
  0
INSERT
  5
12DD
  8
5
  6
CONTINUOUS
  2
*U36
 10
0.0
 20
0.0
 30
0.0
  0
POINT
  5
12DE
  8
DEFPOINTS
 62
     0
 10
252.3847502083369
 20
26.448753359665151
 30
0.0
  0
POINT
  5
12DF
  8
DEFPOINTS
 62
     0
 10
338.38475020833692
 20
61.94875335966514
 30
0.0
  0
POINT
  5
12E0
  8
DEFPOINTS
 62
     0
 10
230.3847502083369
 20
61.948753359665183
 30
0.0
  0
ENDBLK
  5
6B2
  8
0
  0
BLOCK
  8
0
  2
*D20
 70
     1
 10
0.0
 20
0.0
 30
0.0
  3
*D20
  1

  0
LINE
  5
12E1
  8
5
 62
     0
 10
252.3847502083369
 20
25.386253359665151
 30
0.0
 11
252.3847502083369
 21
-0.2312466403348523
 31
0.0
  0
LINE
  5
12E2
  8
5
 62
     0
 10
338.38475020833692
 20
61.886253359665147
 30
0.0
 11
338.38475020833692
 21
-0.2312466403348523
 31
0.0
  0
LINE
  5
12E3
  8
5
 62
     7
 10
255.3847502083369
 20
-0.0512466403348526
 30
0.0
 11
292.79475020833689
 21
-0.0512466403348526
 31
0.0
  0
LINE
  5
12E4
  8
5
 62
     7
 10
335.38475020833692
 20
-0.0512466403348526
 30
0.0
 11
297.97475020833679
 21
-0.0512466403348526
 31
0.0
  0
SOLID
  5
12E5
  8
5
 62
     7
 10
255.3847502083369
 20
0.4487533596651474
 30
0.0
 11
255.3847502083369
 21
-0.5512466403348526
 31
0.0
 12
252.3847502083369
 22
-0.0512466403348526
 32
0.0
 13
252.3847502083369
 23
-0.0512466403348526
 33
0.0
  0
SOLID
  5
12E6
  8
5
 62
     7
 10
335.38475020833692
 20
0.4487533596651474
 30
0.0
 11
335.38475020833692
 21
-0.5512466403348526
 31
0.0
 12
338.38475020833692
 22
-0.0512466403348526
 32
0.0
 13
338.38475020833692
 23
-0.0512466403348526
 33
0.0
  0
INSERT
  5
12E7
  8
5
  6
CONTINUOUS
  2
*U37
 10
0.0
 20
0.0
 30
0.0
  0
POINT
  5
12E8
  8
DEFPOINTS
 62
     0
 10
252.3847502083369
 20
25.448753359665151
 30
0.0
  0
POINT
  5
12E9
  8
DEFPOINTS
 62
     0
 10
338.38475020833692
 20
61.94875335966514
 30
0.0
  0
POINT
  5
12EA
  8
DEFPOINTS
 62
     0
 10
338.38475020833692
 20
-0.0512466403348526
 30
0.0
  0
ENDBLK
  5
6BF
  8
0
  0
BLOCK
  8
0
  2
*D21
 70
     1
 10
0.0
 20
0.0
 30
0.0
  3
*D21
  1

  0
LINE
  5
12F5
  8
5
 62
     0
 10
250.8847502083369
 20
63.261253359665147
 30
0.0
 11
250.8847502083369
 21
100.3787533596651
 31
0.0
  0
LINE
  5
12F6
  8
5
 62
     0
 10
339.88475020833692
 20
55.51125335966514
 30
0.0
 11
339.88475020833692
 21
100.3787533596651
 31
0.0
  0
LINE
  5
12F7
  8
5
 62
     7
 10
253.8847502083369
 20
100.1987533596651
 30
0.0
 11
292.79475020833689
 21
100.1987533596651
 31
0.0
  0
LINE
  5
12F8
  8
5
 62
     7
 10
336.88475020833692
 20
100.1987533596651
 30
0.0
 11
297.97475020833679
 21
100.1987533596651
 31
0.0
  0
SOLID
  5
12F9
  8
5
 62
     7
 10
253.8847502083369
 20
100.6987533596651
 30
0.0
 11
253.8847502083369
 21
99.698753359665147
 31
0.0
 12
250.8847502083369
 22
100.1987533596651
 32
0.0
 13
250.8847502083369
 23
100.1987533596651
 33
0.0
  0
SOLID
  5
12FA
  8
5
 62
     7
 10
336.88475020833692
 20
100.6987533596651
 30
0.0
 11
336.88475020833692
 21
99.698753359665147
 31
0.0
 12
339.88475020833692
 22
100.1987533596651
 32
0.0
 13
339.88475020833692
 23
100.1987533596651
 33
0.0
  0
INSERT
  5
12FB
  8
5
  6
CONTINUOUS
  2
*U39
 10
0.0
 20
0.0
 30
0.0
  0
POINT
  5
12FC
  8
DEFPOINTS
 62
     0
 10
250.8847502083369
 20
63.19875335966514
 30
0.0
  0
POINT
  5
12FD
  8
DEFPOINTS
 62
     0
 10
339.88475020833692
 20
55.448753359665147
 30
0.0
  0
POINT
  5
12FE
  8
DEFPOINTS
 62
     0
 10
339.88475020833692
 20
100.1987533596651
 30
0.0
  0
ENDBLK
  5
6CC
  8
0
  0
BLOCK
  8
0
  2
*D22
 70
     1
 10
0.0
 20
0.0
 30
0.0
  3
*D22
  1

  0
LINE
  5
12FF
  8
5
 62
     0
 10
258.38475020833692
 20
70.261254359665145
 30
0.0
 11
258.38475020833692
 21
92.878753359665154
 31
0.0
  0
LINE
  5
1300
  8
5
 62
     0
 10
332.38475020833692
 20
70.761253359665147
 30
0.0
 11
332.38475020833692
 21
92.878753359665154
 31
0.0
  0
LINE
  5
1301
  8
5
 62
     7
 10
261.38475020833692
 20
92.698753359665147
 30
0.0
 11
292.79475020833689
 21
92.698753359665147
 31
0.0
  0
LINE
  5
1302
  8
5
 62
     7
 10
329.38475020833692
 20
92.698753359665147
 30
0.0
 11
297.97475020833679
 21
92.698753359665147
 31
0.0
  0
SOLID
  5
1303
  8
5
 62
     7
 10
261.38475020833692
 20
93.198753359665133
 30
0.0
 11
261.38475020833692
 21
92.198753359665147
 31
0.0
 12
258.38475020833692
 22
92.698753359665147
 32
0.0
 13
258.38475020833692
 23
92.698753359665147
 33
0.0
  0
SOLID
  5
1304
  8
5
 62
     7
 10
329.38475020833692
 20
93.198753359665133
 30
0.0
 11
329.38475020833692
 21
92.198753359665147
 31
0.0
 12
332.38475020833692
 22
92.698753359665147
 32
0.0
 13
332.38475020833692
 23
92.698753359665147
 33
0.0
  0
INSERT
  5
1305
  8
5
  6
CONTINUOUS
  2
*U40
 10
0.0
 20
0.0
 30
0.0
  0
POINT
  5
1306
  8
DEFPOINTS
 62
     0
 10
258.38475020833692
 20
70.198754359665145
 30
0.0
  0
POINT
  5
1307
  8
DEFPOINTS
 62
     0
 10
332.38475020833692
 20
70.698753359665133
 30
0.0
  0
POINT
  5
1308
  8
DEFPOINTS
 62
     0
 10
332.38475020833692
 20
92.698753359665147
 30
0.0
  0
ENDBLK
  5
6D9
  8
0
  0
BLOCK
  8
0
  2
*D23
 70
     1
 10
0.0
 20
0.0
 30
0.0
  3
*D23
  1

  0
LINE
  5
1309
  8
5
 62
     0
 10
304.38475020833692
 20
44.261251359665152
 30
0.0
 11
304.38475020833692
 21
82.378753359665154
 31
0.0
  0
LINE
  5
130A
  8
5
 62
     0
 10
322.38475020833692
 20
44.26125335966514
 30
0.0
 11
322.38475020833692
 21
82.378753359665154
 31
0.0
  0
LINE
  5
130B
  8
5
 62
     7
 10
307.38475020833692
 20
82.198753359665147
 30
0.0
 11
311.29475020833689
 21
82.198753359665147
 31
0.0
  0
LINE
  5
130C
  8
5
 62
     7
 10
319.38475020833681
 20
82.198753359665147
 30
0.0
 11
315.4747502083369
 21
82.198753359665147
 31
0.0
  0
SOLID
  5
130D
  8
5
 62
     7
 10
307.38475020833692
 20
82.698753359665147
 30
0.0
 11
307.38475020833692
 21
81.698753359665133
 31
0.0
 12
304.38475020833692
 22
82.198753359665147
 32
0.0
 13
304.38475020833692
 23
82.198753359665147
 33
0.0
  0
SOLID
  5
130E
  8
5
 62
     7
 10
319.38475020833681
 20
82.698753359665147
 30
0.0
 11
319.38475020833681
 21
81.698753359665133
 31
0.0
 12
322.38475020833692
 22
82.198753359665147
 32
0.0
 13
322.38475020833692
 23
82.198753359665147
 33
0.0
  0
INSERT
  5
130F
  8
5
  6
CONTINUOUS
  2
*U41
 10
0.0
 20
0.0
 30
0.0
  0
POINT
  5
1310
  8
DEFPOINTS
 62
     0
 10
304.38475020833692
 20
44.198751359665152
 30
0.0
  0
POINT
  5
1311
  8
DEFPOINTS
 62
     0
 10
322.38475020833692
 20
44.198753359665147
 30
0.0
  0
POINT
  5
1312
  8
DEFPOINTS
 62
     0
 10
322.38475020833692
 20
82.198753359665147
 30
0.0
  0
ENDBLK
  5
6E6
  8
0
  0
BLOCK
  8
0
  2
*D24
 70
     1
 10
0.0
 20
0.0
 30
0.0
  3
*D24
  1

  0
LINE
  5
13D5
  8
5
 62
     0
 10
410.38475020833681
 20
72.761253359665147
 30
0.0
 11
410.38475020833681
 21
100.1287533596651
 31
0.0
  0
LINE
  5
13D6
  8
5
 62
     0
 10
420.38475020833681
 20
74.261253359665133
 30
0.0
 11
420.38475020833681
 21
100.1287533596651
 31
0.0
  0
LINE
  5
13D7
  8
5
 62
     7
 10
413.38475020833681
 20
99.948753359665147
 30
0.0
 11
413.54475020833678
 21
99.948753359665147
 31
0.0
  0
LINE
  5
13D8
  8
5
 62
     7
 10
417.38475020833681
 20
99.948753359665147
 30
0.0
 11
417.22475020833679
 21
99.948753359665147
 31
0.0
  0
SOLID
  5
13D9
  8
5
 62
     7
 10
413.38475020833681
 20
100.4487533596651
 30
0.0
 11
413.38475020833681
 21
99.448753359665133
 31
0.0
 12
410.38475020833681
 22
99.948753359665147
 32
0.0
 13
410.38475020833681
 23
99.948753359665147
 33
0.0
  0
SOLID
  5
13DA
  8
5
 62
     7
 10
417.38475020833681
 20
100.4487533596651
 30
0.0
 11
417.38475020833681
 21
99.448753359665133
 31
0.0
 12
420.38475020833681
 22
99.948753359665147
 32
0.0
 13
420.38475020833681
 23
99.948753359665147
 33
0.0
  0
INSERT
  5
13DB
  8
5
  6
CONTINUOUS
  2
*U61
 10
0.0
 20
0.0
 30
0.0
  0
POINT
  5
13DC
  8
DEFPOINTS
 62
     0
 10
410.38475020833681
 20
72.698753359665133
 30
0.0
  0
POINT
  5
13DD
  8
DEFPOINTS
 62
     0
 10
420.38475020833681
 20
74.198753359665147
 30
0.0
  0
POINT
  5
13DE
  8
DEFPOINTS
 62
     0
 10
420.38475020833681
 20
99.948753359665147
 30
0.0
  0
ENDBLK
  5
707
  8
0
  0
BLOCK
  8
0
  2
*D25
 70
     1
 10
0.0
 20
0.0
 30
0.0
  3
*D25
  1

  0
LINE
  5
136D
  8
5
  6
CONTINUOUS
 62
     7
 10
268.45780648508611
 20
48.158608884880152
 30
0.0
 11
265.94481768091401
 21
46.520046322722209
 31
0.0
  0
INSERT
  5
136E
  8
5
  6
CONTINUOUS
  2
*U51
 10
0.0
 20
0.0
 30
0.0
  0
SOLID
  5
136F
  8
5
  6
CONTINUOUS
 62
     7
 10
265.67172392055443
 20
46.938877790084227
 30
0.0
 11
266.21791144127371
 21
46.101214855360183
 31
0.0
 12
263.43182887674192
 22
44.881483760564258
 32
0.0
 13
263.43182887674192
 23
44.881483760564258
 33
0.0
  0
LINE
  5
1370
  8
5
  6
CONTINUOUS
 62
     0
 10
262.29475020833689
 20
44.198749359665108
 30
0.0
 11
262.47475020833679
 21
44.198749359665108
 31
0.0
  0
LINE
  5
1371
  8
5
  6
CONTINUOUS
 62
     0
 10
262.38475020833681
 20
44.108749359665111
 30
0.0
 11
262.38475020833681
 21
44.288749359665132
 31
0.0
  0
POINT
  5
1372
  8
DEFPOINTS
  6
CONTINUOUS
 62
     0
 10
263.43182887674192
 20
44.881483760564258
 30
0.0
  0
POINT
  5
1373
  8
DEFPOINTS
  6
CONTINUOUS
 62
     0
 10
261.33767153993182
 20
43.516014958766
 30
0.0
  0
ENDBLK
  5
112B
  8
0
  0
BLOCK
  8
0
  2
*D26
 70
     1
 10
0.0
 20
0.0
 30
0.0
  3
*D26
  1

  0
LINE
  5
13C4
  8
5
  6
CONTINUOUS
 62
     7
 10
353.80172941690029
 20
60.016653395041509
 30
0.0
 11
340.38340543468922
 21
48.600702268858953
 31
0.0
  0
INSERT
  5
13C5
  8
5
  6
CONTINUOUS
  2
*U59
 10
0.0
 20
0.0
 30
0.0
  0
SOLID
  5
13C6
  8
5
  6
CONTINUOUS
 62
     7
 10
340.05941030048029
 20
48.981526576130619
 30
0.0
 11
340.70740056889809
 21
48.219877961587308
 31
0.0
 12
338.09845959105928
 22
46.656731463605318
 32
0.0
 13
338.09845959105928
 23
46.656731463605318
 33
0.0
  0
LINE
  5
13C7
  8
5
  6
CONTINUOUS
 62
     0
 10
336.29475020833701
 20
45.198753359665119
 30
0.0
 11
336.4747502083369
 21
45.19875335966514
 31
0.0
  0
LINE
  5
13C8
  8
5
  6
CONTINUOUS
 62
     0
 10
336.38475020833698
 20
45.108753359665137
 30
0.0
 11
336.38475020833692
 21
45.288753359665122
 31
0.0
  0
POINT
  5
13C9
  8
DEFPOINTS
  6
CONTINUOUS
 62
     0
 10
338.09845959105928
 20
46.656731463605318
 30
0.0
  0
POINT
  5
13CA
  8
DEFPOINTS
  6
CONTINUOUS
 62
     0
 10
334.67104082561451
 20
43.740775255724941
 30
0.0
  0
ENDBLK
  5
1148
  8
0
  0
BLOCK
  8
0
  2
GENAXEH
 70
     0
 10
0.0
 20
0.0
 30
0.0
  3
GENAXEH
  1

  0
LINE
  5
18E7
  8
0
 10
-1.0
 20
0.0
 30
0.0
 11
1.0
 21
0.0
 31
0.0
  0
ENDBLK
  5
18E9
  8
0
  0
BLOCK
  8
0
  2
*X29
 70
     1
 10
0.0
 20
0.0
 30
0.0
  3
*X29
  1

  0
LINE
  5
1912
  8
0
  6
CONTINUOUS
 62
     0
 10
407.30358112870471
 20
12.19875335966517
 30
0.0
 11
411.80358112870471
 21
16.69875335966514
 31
0.0
  0
LINE
  5
1913
  8
0
  6
CONTINUOUS
 62
     0
 10
403.06094044158527
 20
12.198753359665149
 30
0.0
 11
407.56094044158527
 21
16.698753359665151
 31
0.0
  0
LINE
  5
1914
  8
0
  6
CONTINUOUS
 62
     0
 10
398.81829975446618
 20
12.19875335966516
 30
0.0
 11
403.31829975446618
 21
16.698753359665162
 31
0.0
  0
LINE
  5
1915
  8
0
  6
CONTINUOUS
 62
     0
 10
394.57565906734681
 20
12.198753359665149
 30
0.0
 11
399.07565906734681
 21
16.698753359665151
 31
0.0
  0
LINE
  5
1916
  8
0
  6
CONTINUOUS
 62
     0
 10
390.3330183802276
 20
12.19875335966516
 30
0.0
 11
394.8330183802276
 21
16.698753359665169
 31
0.0
  0
LINE
  5
1917
  8
0
  6
CONTINUOUS
 62
     0
 10
386.09037769310828
 20
12.19875335966517
 30
0.0
 11
390.59037769310828
 21
16.698753359665179
 31
0.0
  0
LINE
  5
1918
  8
0
  6
CONTINUOUS
 62
     0
 10
383.42906308005172
 20
13.78007943372784
 30
0.0
 11
387.38475020833692
 21
17.735766562012991
 31
0.0
  0
LINE
  5
1919
  8
0
  6
CONTINUOUS
 62
     0
 10
383.38475020833692
 20
17.978407249132299
 30
0.0
 11
387.38475020833681
 21
21.978407249132289
 31
0.0
  0
LINE
  5
191A
  8
0
  6
CONTINUOUS
 62
     0
 10
383.38475020833692
 20
22.22104793625159
 30
0.0
 11
387.38475020833692
 21
26.22104793625158
 31
0.0
  0
LINE
  5
191B
  8
0
  6
CONTINUOUS
 62
     0
 10
383.38475020833692
 20
26.463688623370881
 30
0.0
 11
387.38475020833692
 21
30.463688623370871
 31
0.0
  0
LINE
  5
191C
  8
0
  6
CONTINUOUS
 62
     0
 10
409.1271742575118
 20
56.448753359665169
 30
0.0
 11
410.6271742575118
 21
57.948753359665169
 31
0.0
  0
LINE
  5
191D
  8
0
  6
CONTINUOUS
 62
     0
 10
383.38475020833692
 20
30.706329310490158
 30
0.0
 11
389.13475020833681
 21
36.456329310490148
 31
0.0
  0
LINE
  5
191E
  8
0
  6
CONTINUOUS
 62
     0
 10
404.88453357039259
 20
56.44875335966514
 30
0.0
 11
406.38453357039248
 21
57.948753359665147
 31
0.0
  0
LINE
  5
191F
  8
0
  6
CONTINUOUS
 62
     0
 10
383.38475020833692
 20
34.948969997609439
 30
0.0
 11
389.13475020833692
 21
40.698969997609417
 31
0.0
  0
LINE
  5
1920
  8
0
  6
CONTINUOUS
 62
     0
 10
388.39189288327327
 20
44.198753359665162
 30
0.0
 11
389.13475020833692
 21
44.941610684728701
 31
0.0
  0
LINE
  5
1921
  8
0
  6
CONTINUOUS
 62
     0
 10
400.64189288327327
 20
56.448753359665162
 30
0.0
 11
402.14189288327327
 21
57.948753359665162
 31
0.0
  0
LINE
  5
1922
  8
0
  6
CONTINUOUS
 62
     0
 10
383.38475020833692
 20
39.19161068472873
 30
0.0
 11
388.39189288327327
 21
44.198753359665162
 31
0.0
  0
LINE
  5
1923
  8
0
  6
CONTINUOUS
 62
     0
 10
396.39925219615401
 20
56.448753359665169
 30
0.0
 11
397.89925219615401
 21
57.948753359665162
 31
0.0
  0
LINE
  5
1924
  8
0
  6
CONTINUOUS
 62
     0
 10
384.14925219615401
 20
44.198753359665147
 30
0.0
 11
389.13475020833681
 21
49.184251371847992
 31
0.0
  0
LINE
  5
1925
  8
0
  6
CONTINUOUS
 62
     0
 10
406.1492521961539
 20
66.198753359665133
 30
0.0
 11
407.6492521961539
 21
67.698753359665133
 31
0.0
  0
LINE
  5
1926
  8
0
  6
CONTINUOUS
 62
     0
 10
383.38475020833692
 20
43.434251371848013
 30
0.0
 11
384.14925219615401
 21
44.198753359665147
 31
0.0
  0
LINE
  5
1927
  8
0
  6
CONTINUOUS
 62
     0
 10
401.90661150903458
 20
66.198753359665133
 30
0.0
 11
403.40661150903469
 21
67.698753359665133
 31
0.0
  0
LINE
  5
1928
  8
0
  6
CONTINUOUS
 62
     0
 10
392.15661150903469
 20
56.448753359665147
 30
0.0
 11
393.65661150903469
 21
57.948753359665169
 31
0.0
  0
LINE
  5
1929
  8
0
  6
CONTINUOUS
 62
     0
 10
408.40661150903469
 20
72.698753359665133
 30
0.0
 11
410.38475020833681
 21
74.676892058967283
 31
0.0
  0
LINE
  5
192A
  8
0
  6
CONTINUOUS
 62
     0
 10
383.38475020833692
 20
47.676892058967297
 30
0.0
 11
389.13475020833681
 21
53.426892058967269
 31
0.0
  0
LINE
  5
192B
  8
0
  6
CONTINUOUS
 62
     0
 10
397.66397082191543
 20
66.198753359665147
 30
0.0
 11
399.16397082191543
 21
67.698753359665133
 31
0.0
  0
LINE
  5
192C
  8
0
  6
CONTINUOUS
 62
     0
 10
404.16397082191543
 20
72.698753359665133
 30
0.0
 11
407.66397082191543
 21
76.198753359665147
 31
0.0
  0
LINE
  5
192D
  8
0
  6
CONTINUOUS
 62
     0
 10
383.38475020833692
 20
51.919532746086581
 30
0.0
 11
389.41397082191543
 21
57.94875335966514
 31
0.0
  0
LINE
  5
192E
  8
0
  6
CONTINUOUS
 62
     0
 10
393.42133013479622
 20
66.198753359665147
 30
0.0
 11
393.67133013479622
 21
66.448753359665133
 31
0.0
  0
LINE
  5
192F
  8
0
  6
CONTINUOUS
 62
     0
 10
399.92133013479622
 20
72.698753359665133
 30
0.0
 11
403.42133013479611
 21
76.198753359665105
 31
0.0
  0
LINE
  5
1930
  8
0
  6
CONTINUOUS
 62
     0
 10
383.38475020833692
 20
56.162173433205879
 30
0.0
 11
386.38475020833692
 21
59.162173433205858
 31
0.0
  0
LINE
  5
1931
  8
0
  6
CONTINUOUS
 62
     0
 10
395.6786894476769
 20
72.698753359665133
 30
0.0
 11
399.1786894476769
 21
76.198753359665133
 31
0.0
  0
LINE
  5
1932
  8
0
  6
CONTINUOUS
 62
     0
 10
389.1786894476769
 20
66.198753359665105
 30
0.0
 11
389.6786894476769
 21
66.698753359665162
 31
0.0
  0
LINE
  5
1933
  8
0
  6
CONTINUOUS
 62
     0
 10
392.68604876055758
 20
73.948753359665176
 30
0.0
 11
394.93604876055758
 21
76.198753359665133
 31
0.0
  0
LINE
  5
1934
  8
0
  6
CONTINUOUS
 62
     0
 10
383.43604876055758
 20
64.698753359665147
 30
0.0
 11
385.43604876055758
 21
66.698753359665147
 31
0.0
  0
LINE
  5
1935
  8
0
  6
CONTINUOUS
 62
     0
 10
388.19340807343821
 20
73.698753359665147
 30
0.0
 11
390.69340807343832
 21
76.198753359665133
 31
0.0
  0
LINE
  5
1936
  8
0
  6
CONTINUOUS
 62
     0
 10
383.950767386319
 20
73.698753359665147
 30
0.0
 11
386.450767386319
 21
76.198753359665147
 31
0.0
  0
ENDBLK
  5
1938
  8
0
  0
BLOCK
  8
0
  2
*X30
 70
     1
 10
0.0
 20
0.0
 30
0.0
  3
*X30
  1

  0
LINE
  5
193A
  8
0
  6
CONTINUOUS
 62
     0
 10
419.6050963188697
 20
74.198753359665176
 30
0.0
 11
417.60509631886958
 21
76.198753359665147
 31
0.0
  0
LINE
  5
193B
  8
0
  6
CONTINUOUS
 62
     0
 10
416.38475020833692
 20
73.176458783078644
 30
0.0
 11
413.36245563175038
 21
76.19875335966519
 31
0.0
  0
LINE
  5
193C
  8
0
  6
CONTINUOUS
 62
     0
 10
412.86981494463112
 20
72.448753359665147
 30
0.0
 11
410.38475020833681
 21
74.933818095959381
 31
0.0
  0
LINE
  5
193D
  8
0
  6
CONTINUOUS
 62
     0
 10
420.38475020833681
 20
64.933818095959396
 30
0.0
 11
419.11981494463112
 21
66.198753359665147
 31
0.0
  0
LINE
  5
193E
  8
0
  6
CONTINUOUS
 62
     0
 10
420.38475020833681
 20
60.69117740884009
 30
0.0
 11
413.1271742575118
 21
67.948753359665133
 31
0.0
  0
LINE
  5
193F
  8
0
  6
CONTINUOUS
 62
     0
 10
412.38453357039248
 20
64.448753359665176
 30
0.0
 11
410.38475020833681
 21
66.448536721720856
 31
0.0
  0
LINE
  5
1940
  8
0
  6
CONTINUOUS
 62
     0
 10
420.38475020833681
 20
56.448536721720863
 30
0.0
 11
415.63475020833681
 21
61.19853672172087
 31
0.0
  0
LINE
  5
1941
  8
0
  6
CONTINUOUS
 62
     0
 10
420.38475020833681
 20
52.205896034601551
 30
0.0
 11
412.89189288327327
 21
59.698753359665147
 31
0.0
  0
LINE
  5
1942
  8
0
  6
CONTINUOUS
 62
     0
 10
413.6492521961539
 20
54.698753359665147
 30
0.0
 11
412.63475020833681
 21
55.713255347482182
 31
0.0
  0
LINE
  5
1943
  8
0
  6
CONTINUOUS
 62
     0
 10
420.38475020833681
 20
47.963255347482239
 30
0.0
 11
416.6347502083367
 21
51.71325534748231
 31
0.0
  0
LINE
  5
1944
  8
0
  6
CONTINUOUS
 62
     0
 10
420.38475020833681
 20
43.720614660362948
 30
0.0
 11
416.6347502083367
 21
47.470614660363019
 31
0.0
  0
LINE
  5
1945
  8
0
  6
CONTINUOUS
 62
     0
 10
420.38475020833681
 20
39.477973973243692
 30
0.0
 11
416.63475020833681
 21
43.227973973243721
 31
0.0
  0
LINE
  5
1946
  8
0
  6
CONTINUOUS
 62
     0
 10
420.38475020833681
 20
35.235333286124387
 30
0.0
 11
416.63475020833681
 21
38.985333286124401
 31
0.0
  0
LINE
  5
1947
  8
0
  6
CONTINUOUS
 62
     0
 10
420.38475020833681
 20
30.992692599005132
 30
0.0
 11
416.63475020833681
 21
34.742692599005132
 31
0.0
  0
LINE
  5
1948
  8
0
  6
CONTINUOUS
 62
     0
 10
420.38475020833681
 20
26.750051911885841
 30
0.0
 11
416.63475020833681
 21
30.500051911885819
 31
0.0
  0
LINE
  5
1949
  8
0
  6
CONTINUOUS
 62
     0
 10
420.38475020833681
 20
22.507411224766539
 30
0.0
 11
416.63475020833681
 21
26.2574112247665
 31
0.0
  0
LINE
  5
194A
  8
0
  6
CONTINUOUS
 62
     0
 10
420.38475020833692
 20
18.264770537647252
 30
0.0
 11
416.63475020833692
 21
22.014770537647191
 31
0.0
  0
LINE
  5
194B
  8
0
  6
CONTINUOUS
 62
     0
 10
420.37756034474182
 20
14.02931971412303
 30
0.0
 11
416.20812669919968
 21
18.198753359665169
 31
0.0
  0
LINE
  5
194C
  8
0
  6
CONTINUOUS
 62
     0
 10
417.96548601208042
 20
12.19875335966513
 30
0.0
 11
411.96548601208042
 21
18.198753359665162
 31
0.0
  0
LINE
  5
194D
  8
0
  6
CONTINUOUS
 62
     0
 10
413.7228453249611
 20
12.19875335966516
 30
0.0
 11
411.4728453249611
 21
14.44875335966513
 31
0.0
  0
ENDBLK
  5
194F
  8
0
  0
BLOCK
  8
0
  2
*U31
 70
     1
 10
0.0
 20
0.0
 30
0.0
  3
*U31
  1

  0
TEXT
  5
1964
  8
SYMBOLE_DIN_
  6
CONTINUOUS
 62
     7
 10
288.31045368619272
 20
-35.716299060064472
 30
0.0
 40
4.0
  1
MULTIBOX 
  0
TEXT
  5
1965
  8
SYMBOLE_DIN_
  6
CONTINUOUS
 62
     7
 10
288.31045368619272
 20
-42.382965726731129
 30
0.0
 40
4.0
  1
GmbH
  0
ENDBLK
  5
1967
  8
0
  0
BLOCK
  8
0
  2
*U32
 70
     1
 10
0.0
 20
0.0
 30
0.0
  3
*U32
  1

  0
TEXT
  5
1969
  8
SYMBOLE_DIN_
  6
CONTINUOUS
 62
     7
 10
381.2560931974005
 20
-68.848635078237251
 30
0.0
 40
3.0
  1
MBM = 
  0
TEXT
  5
196A
  8
SYMBOLE_DIN_
  6
CONTINUOUS
 62
     7
 10
395.80998132836908
 20
-68.848635078237251
 30
0.0
 40
3.0
  1
Art.-Nr. 0301100800
  0
TEXT
  5
196B
  8
SYMBOLE_DIN_
  6
CONTINUOUS
 62
     7
 10
381.2560931974005
 20
-73.860913386559218
 30
0.0
 40
3.0
  1
MBT  = Art.-Nr. 0401100800
  0
ENDBLK
  5
196D
  8
0
  0
BLOCK
  8
0
  2
*U33
 70
     1
 10
0.0
 20
0.0
 30
0.0
  3
*U33
  1

  0
TEXT
  5
196F
  8
SYMBOLE_DIN_
  6
CONTINUOUS
 62
     7
 10
382.05256579354932
 20
-52.730263426038761
 30
0.0
 40
4.0
  1
MBM / MBT 090603
  0
ENDBLK
  5
1971
  8
0
  0
BLOCK
  8
0
  2
*U34
 70
     1
 10
0.0
 20
0.0
 30
0.0
  3
*U34
  1

  0
TEXT
  5
1973
  8
SYMBOLE_DIN_
  6
CONTINUOUS
 62
     7
 10
363.79840284003689
 20
-51.230263426038761
 30
0.0
 40
2.5
  1
H.Otto
  0
ENDBLK
  5
1975
  8
0
  0
BLOCK
  8
0
  2
*U35
 70
     1
 10
0.0
 20
0.0
 30
0.0
  3
*U35
  1

  0
TEXT
  5
1977
  8
SYMBOLE_DIN_
  6
CONTINUOUS
 62
     7
 10
348.55840284003688
 20
-51.230263426038761
 30
0.0
 40
2.5
  1
18.05.05
  0
ENDBLK
  5
1979
  8
0
  0
BLOCK
  8
0
  2
*U36
 70
     1
 10
0.0
 20
0.0
 30
0.0
  3
*U36
  1

  0
TEXT
  5
197B
  8
5
  6
CONTINUOUS
 62
     7
 10
231.88475020833681
 20
41.698753359665197
 30
0.0
 40
3.0
  1
36
 50
90.0
  0
ENDBLK
  5
197D
  8
0
  0
BLOCK
  8
0
  2
*U37
 70
     1
 10
0.0
 20
0.0
 30
0.0
  3
*U37
  1

  0
TEXT
  5
197F
  8
5
  6
CONTINUOUS
 62
     7
 10
292.88475020833692
 20
-1.5512466403348519
 30
0.0
 40
3.0
  1
86
  0
ENDBLK
  5
1981
  8
0
  0
BLOCK
  8
0
  2
*U38
 70
     1
 10
0.0
 20
0.0
 30
0.0
  3
*U38
  1

  0
TEXT
  5
1983
  8
5
  6
CONTINUOUS
 62
     7
 10
292.88475020833692
 20
105.4487533596651
 30
0.0
 40
3.0
  1
98
  0
ENDBLK
  5
1985
  8
0
  0
BLOCK
  8
0
  2
*U39
 70
     1
 10
0.0
 20
0.0
 30
0.0
  3
*U39
  1

  0
TEXT
  5
1987
  8
5
  6
CONTINUOUS
 62
     7
 10
292.88475020833692
 20
98.698753359665147
 30
0.0
 40
3.0
  1
89
  0
ENDBLK
  5
1989
  8
0
  0
BLOCK
  8
0
  2
*U40
 70
     1
 10
0.0
 20
0.0
 30
0.0
  3
*U40
  1

  0
TEXT
  5
198B
  8
5
  6
CONTINUOUS
 62
     7
 10
292.88475020833692
 20
91.198753359665147
 30
0.0
 40
3.0
  1
74
  0
ENDBLK
  5
198D
  8
0
  0
BLOCK
  8
0
  2
*U41
 70
     1
 10
0.0
 20
0.0
 30
0.0
  3
*U41
  1

  0
TEXT
  5
198F
  8
5
  6
CONTINUOUS
 62
     7
 10
311.38475020833692
 20
80.698753359665133
 30
0.0
 40
3.0
  1
18
  0
ENDBLK
  5
1991
  8
0
  0
BLOCK
  8
0
  2
*U42
 70
     1
 10
0.0
 20
0.0
 30
0.0
  3
*U42
  1

  0
TEXT
  5
1993
  8
1
  6
CONTINUOUS
 62
     7
 10
287.97475020833679
 20
25.523754359665151
 30
0.0
 40
3.0
  1
4.5
  0
ENDBLK
  5
1995
  8
0
  0
BLOCK
  8
0
  2
*U43
 70
     1
 10
0.0
 20
0.0
 30
0.0
  3
*U43
  1

  0
TEXT
  5
1997
  8
5
  6
CONTINUOUS
 62
     7
 10
219.88475020833681
 20
41.698749359665193
 30
0.0
 40
3.0
  1
64
 50
90.0
  0
ENDBLK
  5
1999
  8
0
  0
BLOCK
  8
0
  2
*U44
 70
     1
 10
0.0
 20
0.0
 30
0.0
  3
*U44
  1

  0
TEXT
  5
199B
  8
5
  6
CONTINUOUS
 62
     7
 10
225.88475020833681
 20
41.698753359665183
 30
0.0
 40
3.0
  1
55
 50
90.0
  0
ENDBLK
  5
199D
  8
0
  0
BLOCK
  8
0
  2
*U45
 70
     1
 10
0.0
 20
0.0
 30
0.0
  3
*U45
  1

  0
TEXT
  5
199F
  8
5
  6
CONTINUOUS
 62
     7
 10
239.38475020833681
 20
42.07375335966519
 30
0.0
 40
3.0
  1
32.25
 50
90.0
  0
ENDBLK
  5
19A1
  8
0
  0
BLOCK
  8
0
  2
*U46
 70
     1
 10
0.0
 20
0.0
 30
0.0
  3
*U46
  1

  0
TEXT
  5
19A3
  8
5
  6
CONTINUOUS
 62
     7
 10
259.13475020833692
 20
41.698751359665202
 30
0.0
 40
3.0
  1
23
 50
90.0
  0
ENDBLK
  5
19A5
  8
0
  0
BLOCK
  8
0
  2
*U47
 70
     1
 10
0.0
 20
0.0
 30
0.0
  3
*U47
  1

  0
TEXT
  5
19A7
  8
5
  6
CONTINUOUS
 62
     7
 10
242.4747502083369
 20
71.69875335966519
 30
0.0
 40
3.0
  1
7.5
 50
90.0
  0
ENDBLK
  5
19A9
  8
0
  0
BLOCK
  8
0
  2
*U48
 70
     1
 10
0.0
 20
0.0
 30
0.0
  3
*U48
  1

  0
TEXT
  5
19AB
  8
5
  6
CONTINUOUS
 62
     7
 10
293.38475020833692
 20
80.698753359665133
 30
0.0
 40
3.0
  1
18
  0
ENDBLK
  5
19AD
  8
0
  0
BLOCK
  8
0
  2
*U49
 70
     1
 10
0.0
 20
0.0
 30
0.0
  3
*U49
  1

  0
TEXT
  5
19AF
  8
5
  6
CONTINUOUS
 62
     7
 10
271.88475020833692
 20
80.698753359665133
 30
0.0
 40
3.0
  1
24
  0
ENDBLK
  5
19B1
  8
0
  0
BLOCK
  8
0
  2
*U50
 70
     1
 10
0.0
 20
0.0
 30
0.0
  3
*U50
  1

  0
TEXT
  5
19B3
  8
1
  6
CONTINUOUS
 62
     7
 10
292.47475020833679
 20
58.19875335966514
 30
0.0
 40
3.0
  1
4.5
  0
ENDBLK
  5
19B5
  8
0
  0
BLOCK
  8
0
  2
*U51
 70
     1
 10
0.0
 20
0.0
 30
0.0
  3
*U51
  1

  0
TEXT
  5
19B7
  8
5
  6
CONTINUOUS
 62
     7
 10
269.35247743029032
 20
46.951271359658833
 30
0.0
 40
3.0
  1
\U+22052.5
 50
33.105852051654011
  0
ENDBLK
  5
19B9
  8
0
  0
BLOCK
  8
0
  2
*U52
 70
     1
 10
0.0
 20
0.0
 30
0.0
  3
*U52
  1

  0
TEXT
  5
19BB
  8
5
  6
CONTINUOUS
 62
     7
 10
395.22475020833679
 20
40.69875335966514
 30
0.0
 40
3.0
  1
5.5
  0
ENDBLK
  5
19BD
  8
0
  0
BLOCK
  8
0
  2
*U53
 70
     1
 10
0.0
 20
0.0
 30
0.0
  3
*U53
  1

  0
TEXT
  5
19BF
  8
5
  6
CONTINUOUS
 62
     7
 10
364.38475020833692
 20
37.698753359665211
 30
0.0
 40
3.0
  1
26
 50
90.0
  0
ENDBLK
  5
19C1
  8
0
  0
BLOCK
  8
0
  2
*U54
 70
     1
 10
0.0
 20
0.0
 30
0.0
  3
*U54
  1

  0
TEXT
  5
19C3
  8
5
  6
CONTINUOUS
 62
     7
 10
358.63475020833692
 20
38.448753359665197
 30
0.0
 40
3.0
  1
10
 50
90.0
  0
ENDBLK
  5
19C5
  8
0
  0
BLOCK
  8
0
  2
*U55
 70
     1
 10
0.0
 20
0.0
 30
0.0
  3
*U55
  1

  0
TEXT
  5
19C7
  8
5
  6
CONTINUOUS
 62
     7
 10
398.38475020833692
 20
33.198753359665147
 30
0.0
 40
3.0
  1
27.5
  0
ENDBLK
  5
19C9
  8
0
  0
BLOCK
  8
0
  2
*U56
 70
     1
 10
0.0
 20
0.0
 30
0.0
  3
*U56
  1

  0
TEXT
  5
19CB
  8
5
  6
CONTINUOUS
 62
     7
 10
399.38475020833692
 20
105.4487533596651
 30
0.0
 40
3.0
  1
37
  0
ENDBLK
  5
19CD
  8
0
  0
BLOCK
  8
0
  2
*U57
 70
     1
 10
0.0
 20
0.0
 30
0.0
  3
*U57
  1

  0
TEXT
  5
19CF
  8
5
  6
CONTINUOUS
 62
     7
 10
347.47475020833679
 20
80.698753359665133
 30
0.0
 40
3.0
  1
8
  0
ENDBLK
  5
19D1
  8
0
  0
BLOCK
  8
0
  2
*U58
 70
     1
 10
0.0
 20
0.0
 30
0.0
  3
*U58
  1

  0
TEXT
  5
19D3
  8
5
  6
CONTINUOUS
 62
     7
 10
327.38475020833692
 20
80.698753359665133
 30
0.0
 40
3.0
  1
14
  0
ENDBLK
  5
19D5
  8
0
  0
BLOCK
  8
0
  2
*U59
 70
     1
 10
0.0
 20
0.0
 30
0.0
  3
*U59
  1

  0
TEXT
  5
19D7
  8
5
  6
CONTINUOUS
 62
     7
 10
354.84226319483599
 20
58.932499597384137
 30
0.0
 40
3.0
  1
\U+22054.5
 50
40.390247548302042
  0
ENDBLK
  5
19D9
  8
0
  0
BLOCK
  8
0
  2
*U60
 70
     1
 10
0.0
 20
0.0
 30
0.0
  3
*U60
  1

  0
TEXT
  5
19DB
  8
5
  6
CONTINUOUS
 62
     7
 10
376.88475020833692
 20
70.788753359665208
 30
0.0
 40
3.0
  1
4.5
 50
90.0
  0
ENDBLK
  5
19DD
  8
0
  0
BLOCK
  8
0
  2
*U61
 70
     1
 10
0.0
 20
0.0
 30
0.0
  3
*U61
  1

  0
TEXT
  5
19DF
  8
5
  6
CONTINUOUS
 62
     7
 10
413.63475020833681
 20
98.448753359665147
 30
0.0
 40
3.0
  1
10
  0
ENDBLK
  5
19E1
  8
0
  0
ENDSEC
  0
SECTION
  2
ENTITIES
  0
CIRCLE
  5
36A
  8
2
  6
0
 62
     7
 10
338.38475020833692
 20
70.198753359665133
 30
0.0
 40
2.5
  0
CIRCLE
  5
36B
  8
2
  6
0
 62
     7
 10
252.3847502083369
 20
70.198751359665152
 30
0.0
 40
2.5
  0
CIRCLE
  5
36C
  8
2
  6
0
 62
     7
 10
252.3847502083369
 20
18.198738359665139
 30
0.0
 40
2.5
  0
CIRCLE
  5
36D
  8
2
  6
0
 62
     7
 10
338.38474220833689
 20
18.198738359665139
 30
0.0
 40
2.5
  0
ARC
  5
36E
  8
2
  6
0
 62
     7
 10
338.88475020833692
 20
55.448753359665147
 30
0.0
 40
1.0
 50
0.0
 51
89.999992000000006
  0
LINE
  5
36F
  8
2
  6
0
 62
     7
 10
338.38475020833692
 20
56.44875335966514
 30
0.0
 11
338.88475020833692
 21
56.44875335966514
 31
0.0
  0
ARC
  5
370
  8
2
  6
0
 62
     7
 10
338.88475020833692
 20
25.198753359665151
 30
0.0
 40
1.0
 50
270.0
 51
0.0
  0
LINE
  5
371
  8
2
  6
0
 62
     7
 10
339.88475020833692
 20
55.448753359665147
 30
0.0
 11
339.88475020833692
 21
25.198753359665151
 31
0.0
  0
LINE
  5
372
  8
2
  6
0
 62
     7
 10
338.38474220833689
 20
24.198753359665151
 30
0.0
 11
338.88475020833692
 21
24.198753359665151
 31
0.0
  0
ARC
  5
373
  8
2
  6
0
 62
     7
 10
331.38475020833692
 20
17.698753359665151
 30
0.0
 40
1.0
 50
270.0
 51
0.0
  0
LINE
  5
374
  8
2
  6
0
 62
     7
 10
332.38475020833692
 20
18.198738359665139
 30
0.0
 11
332.38475020833692
 21
17.698753359665151
 31
0.0
  0
ARC
  5
375
  8
2
  6
0
 62
     7
 10
259.38475020833692
 20
17.698753359665151
 30
0.0
 40
1.0
 50
180.0
 51
270.0
  0
LINE
  5
376
  8
2
  6
0
 62
     7
 10
331.38475020833692
 20
16.698753359665151
 30
0.0
 11
259.38475020833692
 21
16.698753359665151
 31
0.0
  0
LINE
  5
377
  8
2
  6
0
 62
     7
 10
258.38475020833692
 20
25.948753359665151
 30
0.0
 11
258.38475020833692
 21
17.698753359665151
 31
0.0
  0
ARC
  5
378
  8
2
  6
0
 62
     7
 10
251.8847502083369
 20
32.948753359665147
 30
0.0
 40
1.0
 50
180.0
 51
270.0
  0
LINE
  5
379
  8
2
  6
0
 62
     7
 10
252.3847502083369
 20
31.948753359665151
 30
0.0
 11
251.8847502083369
 21
31.948753359665151
 31
0.0
  0
ARC
  5
37A
  8
2
  6
0
 62
     7
 10
251.8847502083369
 20
63.19875335966514
 30
0.0
 40
1.0
 50
89.999992000000006
 51
179.99998500000001
  0
LINE
  5
37B
  8
2
  6
0
 62
     7
 10
250.8847502083369
 20
32.948753359665147
 30
0.0
 11
250.8847502083369
 21
63.19875335966514
 31
0.0
  0
LINE
  5
37C
  8
2
  6
0
 62
     7
 10
252.3847502083369
 20
64.198753359665147
 30
0.0
 11
251.8847502083369
 21
64.198753359665147
 31
0.0
  0
ARC
  5
37D
  8
2
  6
0
 62
     7
 10
259.38475020833692
 20
70.698753359665133
 30
0.0
 40
1.0
 50
89.999992000000006
 51
179.99998500000001
  0
LINE
  5
37E
  8
2
  6
0
 62
     7
 10
258.38475020833692
 20
70.198751359665152
 30
0.0
 11
258.38475020833692
 21
70.698753359665133
 31
0.0
  0
ARC
  5
37F
  8
2
  6
0
 62
     7
 10
331.38475020833692
 20
70.698753359665133
 30
0.0
 40
1.0
 50
0.0
 51
89.999992000000006
  0
LINE
  5
380
  8
2
  6
0
 62
     7
 10
259.38475020833692
 20
71.698753359665147
 30
0.0
 11
331.38475020833692
 21
71.698753359665147
 31
0.0
  0
LINE
  5
381
  8
2
  6
0
 62
     7
 10
332.38475020833692
 20
62.448753359665147
 30
0.0
 11
332.38475020833692
 21
70.698753359665133
 31
0.0
  0
ARC
  5
382
  8
2
  6
0
 62
     7
 10
252.3847502083369
 20
70.198753359665133
 30
0.0
 40
6.0
 50
270.0
 51
0.000003
  0
ARC
  5
383
  8
2
  6
0
 62
     7
 10
338.38475020833692
 20
62.448753359665147
 30
0.0
 40
6.0
 50
180.0
 51
270.0
  0
ARC
  5
384
  8
2
  6
0
 62
     7
 10
338.38474220833689
 20
18.198738359665139
 30
0.0
 40
6.0
 50
90.000007999999994
 51
180.00001499999999
  0
ARC
  5
385
  8
2
  6
0
 62
     7
 10
252.3847502083369
 20
25.948753359665151
 30
0.0
 40
6.0
 50
0.0
 51
90.0
  0
ARC
  5
386
  8
2
  6
0
 62
     7
 10
252.3847502083369
 20
70.19875235966515
 30
0.0
 40
6.0
 50
89.999992000000006
 51
179.99998500000001
  0
ARC
  5
387
  8
2
  6
0
 62
     7
 10
252.3847502083369
 20
18.198745359665139
 30
0.0
 40
6.0
 50
180.0
 51
270.0
  0
LINE
  5
388
  8
2
  6
0
 62
     7
 10
246.3847502083369
 20
70.198753359665133
 30
0.0
 11
246.3847502083369
 21
18.198745359665139
 31
0.0
  0
ARC
  5
389
  8
2
  6
0
 62
     7
 10
338.38475020833692
 20
18.19875335966514
 30
0.0
 40
6.0
 50
270.0
 51
0.0
  0
LINE
  5
38A
  8
2
  6
0
 62
     7
 10
252.3847502083369
 20
12.198745359665139
 30
0.0
 11
338.38475020833692
 21
12.198753359665149
 31
0.0
  0
ARC
  5
38B
  8
2
  6
0
 62
     7
 10
338.38475020833692
 20
70.19875235966515
 30
0.0
 40
6.0
 50
0.000018
 51
90.000015000000005
  0
LINE
  5
38C
  8
2
  6
0
 62
     7
 10
252.3847502083369
 20
76.198753359665147
 30
0.0
 11
338.38475020833692
 21
76.19875235966515
 31
0.0
  0
LINE
  5
38D
  8
2
  6
0
 62
     7
 10
344.38475020833681
 20
18.19875335966514
 30
0.0
 11
344.38475020833681
 21
70.198753359665133
 31
0.0
  0
CIRCLE
  5
38E
  8
2
  6
0
 62
     7
 10
252.3847502083369
 20
26.448753359665151
 30
0.0
 40
2.25
  0
CIRCLE
  5
38F
  8
2
  6
0
 62
     7
 10
338.38475020833692
 20
61.94875335966514
 30
0.0
 40
2.25
  0
LINE
  5
390
  8
2
  6
0
 62
     7
 10
333.88475020833692
 20
62.448753359665147
 30
0.0
 11
333.88475020833692
 21
70.448753359665147
 31
0.0
  0
LINE
  5
391
  8
2
  6
0
 62
     7
 10
333.88475020833692
 20
70.448753359665147
 30
0.0
 11
334.38475020833692
 21
70.448753359665147
 31
0.0
  0
ARC
  5
392
  8
2
  6
0
 62
     7
 10
339.13475020833692
 20
55.69875335966514
 30
0.0
 40
2.25
 50
0.0
 51
89.999992000000006
  0
LINE
  5
393
  8
2
  6
0
 62
     7
 10
338.38475020833692
 20
57.948753359665147
 30
0.0
 11
339.13475020833692
 21
57.948753359665147
 31
0.0
  0
ARC
  5
394
  8
2
  6
0
 62
     7
 10
341.7847522083369
 20
53.598753359665139
 30
0.0
 40
0.4
 50
180.0
 51
270.0
  0
LINE
  5
395
  8
2
  6
0
 62
     7
 10
341.38475020833692
 20
55.69875335966514
 30
0.0
 11
341.38475020833692
 21
53.598753359665139
 31
0.0
  0
ARC
  5
396
  8
2
  6
0
 62
     7
 10
341.9847482083369
 20
53.598754359665151
 30
0.0
 40
0.4
 50
269.99978599999997
 51
359.99978599999997
  0
LINE
  5
397
  8
2
  6
0
 62
     7
 10
342.38475020833692
 20
68.448753359665147
 30
0.0
 11
342.38475020833692
 21
53.598753359665139
 31
0.0
  0
LINE
  5
398
  8
2
  6
0
 62
     7
 10
341.7847522083369
 20
53.19875335966514
 30
0.0
 11
341.9847482083369
 21
53.19875335966514
 31
0.0
  0
LINE
  5
399
  8
2
  6
0
 62
     7
 10
342.38475020833692
 20
68.448753359665147
 30
0.0
 11
342.38475020833692
 21
70.448753359665147
 31
0.0
  0
ARC
  5
39A
  8
2
  6
0
 62
     7
 10
338.38475020833692
 20
70.198753359665133
 30
0.0
 40
4.0
 50
176.42366000000001
 51
3.5763379999999998
  0
ARC
  5
39B
  8
2
  6
0
 62
     7
 10
338.38475020833692
 20
62.448753359665147
 30
0.0
 40
4.5
 50
180.0
 51
279.46234099999998
  0
LINE
  5
39C
  8
2
  6
0
 62
     7
 10
256.88475020833681
 20
25.94874535966515
 30
0.0
 11
256.88475020833681
 21
17.948745359665139
 31
0.0
  0
LINE
  5
39D
  8
2
  6
0
 62
     7
 10
256.88475020833681
 20
17.948745359665139
 30
0.0
 11
256.38475020833692
 21
17.948745359665139
 31
0.0
  0
ARC
  5
39E
  8
2
  6
0
 62
     7
 10
251.6347502083369
 20
32.698745359665153
 30
0.0
 40
2.25
 50
180.0
 51
270.0
  0
LINE
  5
39F
  8
2
  6
0
 62
     7
 10
252.3847502083369
 20
30.44874535966515
 30
0.0
 11
251.6347502083369
 21
30.44874535966515
 31
0.0
  0
ARC
  5
3A0
  8
2
  6
0
 62
     7
 10
248.9847482083369
 20
34.798748359665147
 30
0.0
 40
0.4
 50
0.000004
 51
90.0
  0
LINE
  5
3A1
  8
2
  6
0
 62
     7
 10
249.3847502083369
 20
32.698745359665153
 30
0.0
 11
249.3847502083369
 21
34.798748359665147
 31
0.0
  0
ARC
  5
3A2
  8
2
  6
0
 62
     7
 10
248.7847522083369
 20
34.798748359665147
 30
0.0
 40
0.4
 50
89.999786
 51
179.999786
  0
LINE
  5
3A3
  8
2
  6
0
 62
     7
 10
248.3847502083369
 20
19.948745359665139
 30
0.0
 11
248.3847502083369
 21
34.798748359665147
 31
0.0
  0
LINE
  5
3A4
  8
2
  6
0
 62
     7
 10
248.9847482083369
 20
35.198747359665148
 30
0.0
 11
248.7847522083369
 21
35.198747359665148
 31
0.0
  0
LINE
  5
3A5
  8
2
  6
0
 62
     7
 10
248.3847502083369
 20
19.948745359665139
 30
0.0
 11
248.3847502083369
 21
17.948745359665139
 31
0.0
  0
ARC
  5
3A6
  8
2
  6
0
 62
     7
 10
252.3847502083369
 20
18.19874935966515
 30
0.0
 40
4.0
 50
356.423676
 51
183.57633999999999
  0
ARC
  5
3A7
  8
2
  6
0
 62
     7
 10
252.3847502083369
 20
25.94874535966515
 30
0.0
 40
4.5
 50
0.00001
 51
99.462341000000023
  0
LINE
  5
3A8
  8
2
  6
0
 62
     7
 10
250.8847502083369
 20
55.69874935966515
 30
0.0
 11
332.38475020833692
 21
55.69874935966515
 31
0.0
  0
LINE
  5
3A9
  8
2
  6
0
 62
     7
 10
332.38475020833692
 20
32.698753359665147
 30
0.0
 11
250.8847502083369
 21
32.698753359665147
 31
0.0
  0
LINE
  5
3AA
  8
2
  6
0
 62
     7
 10
332.38475020833692
 20
32.698753359665147
 30
0.0
 11
332.38474220833689
 21
18.198738359665139
 31
0.0
  0
LINE
  5
3AB
  8
2
  6
0
 62
     7
 10
332.38475020833692
 20
62.448753359665147
 30
0.0
 11
332.38475020833692
 21
55.69874935966515
 31
0.0
  0
ARC
  5
3AC
  8
2
  6
0
 62
     7
 10
385.38475020833692
 20
74.198753359665147
 30
0.0
 40
2.0
 50
89.999992000000006
 51
179.99998500000001
  0
LINE
  5
3AD
  8
2
  6
0
 62
     7
 10
410.38475020833681
 20
76.198753359665147
 30
0.0
 11
385.38475020833692
 21
76.198753359665147
 31
0.0
  0
ARC
  5
3AE
  8
2
  6
0
 62
     7
 10
385.38475020833692
 20
14.198753359665149
 30
0.0
 40
2.0
 50
180.0
 51
270.0
  0
LINE
  5
3AF
  8
2
  6
0
 62
     7
 10
410.38475020833681
 20
12.198753359665149
 30
0.0
 11
385.38475020833692
 21
12.198753359665149
 31
0.0
  0
LINE
  5
3B0
  8
2
  6
0
 62
     7
 10
383.38475020833692
 20
74.198753359665147
 30
0.0
 11
383.38475020833692
 21
14.198753359665149
 31
0.0
  0
LINE
  5
3B3
  8
1
  6
ACAD_ISO10W100
 62
     7
 10
295.38475020833692
 20
76.198753359665147
 30
0.0
 11
295.38475020833692
 21
12.19874935966515
 31
0.0
  0
LINE
  5
3B4
  8
1
  6
ACAD_ISO10W100
 62
     7
 10
344.38475020833681
 20
44.198753359665147
 30
0.0
 11
246.3847502083369
 21
44.198749359665143
 31
0.0
  0
LINE
  5
3B5
  8
1
  6
ACAD_ISO10W100
 62
     7
 10
295.38475020833692
 20
76.198753359665147
 30
0.0
 11
295.38475020833692
 21
80.198753359665147
 31
0.0
  0
LINE
  5
3B6
  8
1
  6
ACAD_ISO10W100
 62
     7
 10
344.38475020833681
 20
44.198753359665147
 30
0.0
 11
348.38475020833692
 21
44.198753359665147
 31
0.0
  0
LINE
  5
3B7
  8
1
  6
ACAD_ISO10W100
 62
     7
 10
295.38475020833692
 20
12.19874935966515
 30
0.0
 11
295.38475020833692
 21
8.1987533596651474
 31
0.0
  0
LINE
  5
3B8
  8
1
  6
ACAD_ISO10W100
 62
     7
 10
246.3847502083369
 20
44.198749359665143
 30
0.0
 11
242.38475020833681
 21
44.198749359665143
 31
0.0
  0
LINE
  5
3BB
  8
2
  6
2
 62
     7
 10
342.13475020833692
 20
53.94875335966514
 30
0.0
 11
342.13475020833692
 21
53.19875335966514
 31
0.0
  0
LINE
  5
3BC
  8
2
  6
0
 62
     7
 10
412.13475020833681
 20
16.698753359665151
 30
0.0
 11
387.38475020833692
 21
16.698753359665151
 31
0.0
  0
LINE
  5
3BD
  8
2
  6
0
 62
     7
 10
387.38475020833692
 20
16.698753359665151
 30
0.0
 11
387.38475020833692
 21
32.698753359665147
 31
0.0
  0
LINE
  5
3BE
  8
2
  6
0
 62
     7
 10
387.38475020833692
 20
32.698753359665147
 30
0.0
 11
389.13475020833692
 21
32.698753359665147
 31
0.0
  0
LINE
  5
3BF
  8
2
  6
0
 62
     7
 10
389.13475020833692
 20
32.698753359665147
 30
0.0
 11
389.13475020833692
 21
55.69875335966514
 31
0.0
  0
LINE
  5
3C0
  8
2
  6
0
 62
     7
 10
389.13475020833692
 20
32.698753359665147
 30
0.0
 11
389.13475020833692
 21
24.198753359665151
 31
0.0
  0
CIRCLE
  5
3C1
  8
2
  6
0
 62
     7
 10
252.3847502083369
 20
70.198751359665152
 30
0.0
 40
1.649999999999999
  0
CIRCLE
  5
3C2
  8
2
  6
0
 62
     7
 10
252.3847502083369
 20
18.198738359665139
 30
0.0
 40
1.649999999999999
  0
CIRCLE
  5
3C3
  8
2
  6
0
 62
     7
 10
338.38474220833689
 20
18.198738359665139
 30
0.0
 40
1.649999999999999
  0
CIRCLE
  5
3C4
  8
2
  6
0
 62
     7
 10
338.38475020833692
 20
70.198753359665133
 30
0.0
 40
1.649999999999999
  0
ARC
  5
3C5
  8
2
  6
0
 62
     7
 10
252.3847502083369
 20
70.198751359665152
 30
0.0
 40
2.0
 50
180.0
 51
90.000007999999994
  0
ARC
  5
3C6
  8
2
  6
0
 62
     7
 10
338.38475020833692
 20
70.198753359665133
 30
0.0
 40
2.0
 50
180.0
 51
90.000007999999994
  0
ARC
  5
3C7
  8
2
  6
0
 62
     7
 10
338.38474220833689
 20
18.198738359665139
 30
0.0
 40
2.0
 50
180.0
 51
90.000007999999994
  0
ARC
  5
3C8
  8
2
  6
0
 62
     7
 10
252.3847502083369
 20
18.198738359665139
 30
0.0
 40
2.0
 50
180.0
 51
90.000007999999994
  0
CIRCLE
  5
3C9
  8
2
  6
0
 62
     7
 10
262.38475020833692
 20
44.198749359665143
 30
0.0
 40
1.25
  0
CIRCLE
  5
3CA
  8
2
  6
0
 62
     7
 10
277.38475020833692
 20
44.198751359665152
 30
0.0
 40
1.25
  0
CIRCLE
  5
3CB
  8
2
  6
0
 62
     7
 10
281.88475020833681
 20
44.198751359665152
 30
0.0
 40
1.25
  0
CIRCLE
  5
3CC
  8
2
  6
0
 62
     7
 10
286.38475020833692
 20
44.198751359665152
 30
0.0
 40
1.25
  0
CIRCLE
  5
3CD
  8
2
  6
0
 62
     7
 10
304.38475020833692
 20
44.198751359665152
 30
0.0
 40
1.25
  0
CIRCLE
  5
3CE
  8
2
  6
0
 62
     7
 10
308.88475020833692
 20
44.198751359665152
 30
0.0
 40
1.25
  0
CIRCLE
  5
3CF
  8
2
  6
0
 62
     7
 10
322.38475020833692
 20
44.198753359665147
 30
0.0
 40
1.25
  0
ARC
  5
3D0
  8
2
  6
0
 62
     7
 10
418.38475020833681
 20
74.198753359665147
 30
0.0
 40
2.0
 50
0.0
 51
89.999992000000006
1001
ACAD
1000
ASC_BOUNDS
1002
{
1070
    19
1005
4B4
1002
}
  0
LINE
  5
3D1
  8
2
  6
0
 62
     7
 10
410.38475020833681
 20
76.198753359665147
 30
0.0
 11
418.38475020833681
 21
76.198753359665147
 31
0.0
1001
ACAD
1000
ASC_BOUNDS
1002
{
1070
    19
1005
4B4
1002
}
  0
ARC
  5
3D2
  8
2
  6
0
 62
     7
 10
418.38475020833681
 20
14.198753359665149
 30
0.0
 40
2.0
 50
270.0
 51
0.0
1001
ACAD
1000
ASC_BOUNDS
1002
{
1070
    19
1005
4B4
1002
}
  0
LINE
  5
3D3
  8
2
  6
0
 62
     7
 10
420.38475020833681
 20
74.198753359665147
 30
0.0
 11
420.38475020833681
 21
14.198753359665149
 31
0.0
1001
ACAD
1000
ASC_BOUNDS
1002
{
1070
    19
1005
4B4
1002
}
  0
LINE
  5
3D4
  8
2
  6
0
 62
     7
 10
410.38475020833681
 20
12.198753359665149
 30
0.0
 11
418.38475020833681
 21
12.198753359665149
 31
0.0
1001
ACAD
1000
ASC_BOUNDS
1002
{
1070
    19
1005
4B4
1002
}
  0
CIRCLE
  5
3D5
  8
2
  6
0
 62
     7
 10
336.38475020833692
 20
53.19875335966514
 30
0.0
 40
1.25
  0
CIRCLE
  5
3D6
  8
2
  6
0
 62
     7
 10
336.38475020833692
 20
27.198753359665151
 30
0.0
 40
1.25
  0
CIRCLE
  5
3D7
  8
2
  6
0
 62
     7
 10
336.38475020833692
 20
45.19875335966514
 30
0.0
 40
2.25
  0
CIRCLE
  5
3D8
  8
2
  6
0
 62
     7
 10
336.38475020833692
 20
35.198753359665147
 30
0.0
 40
2.25
  0
ARC
  5
3D9
  8
2
  6
0
 62
     7
 10
338.38474220833689
 20
18.198738359665139
 30
0.0
 40
4.25
 50
90.0
 51
180.0
  0
ARC
  5
3DA
  8
2
  6
0
 62
     7
 10
338.88475020833692
 20
25.198738359665139
 30
0.0
 40
2.75
 50
270.0
 51
0.0
  0
LINE
  5
3DB
  8
2
  6
0
 62
     7
 10
338.38474220833689
 20
22.448738359665139
 30
0.0
 11
338.88475020833692
 21
22.448738359665139
 31
0.0
  0
ARC
  5
3DC
  8
2
  6
0
 62
     7
 10
331.38474220833689
 20
17.698753359665151
 30
0.0
 40
2.75
 50
270.0
 51
0.0
  0
LINE
  5
3DD
  8
2
  6
0
 62
     7
 10
334.13474220833689
 20
18.198738359665139
 30
0.0
 11
334.13474220833689
 21
17.698753359665151
 31
0.0
  0
ARC
  5
3DE
  8
2
  6
0
 62
     7
 10
252.3847502083369
 20
70.198751359665152
 30
0.0
 40
4.25
 50
270.0
 51
0.000003
  0
ARC
  5
3DF
  8
2
  6
0
 62
     7
 10
251.8847502083369
 20
63.198750359665141
 30
0.0
 40
2.75
 50
89.999992000000006
 51
180.0
  0
LINE
  5
3E0
  8
2
  6
0
 62
     7
 10
252.3847502083369
 20
65.948751359665152
 30
0.0
 11
251.8847502083369
 21
65.948751359665152
 31
0.0
  0
ARC
  5
3E1
  8
2
  6
0
 62
     7
 10
259.38475020833692
 20
70.698753359665133
 30
0.0
 40
2.75
 50
89.999992000000006
 51
179.99998500000001
  0
LINE
  5
3E2
  8
2
  6
0
 62
     7
 10
256.63475020833692
 20
70.19875235966515
 30
0.0
 11
256.63475020833692
 21
70.698753359665133
 31
0.0
  0
ARC
  5
3E3
  8
2
  6
0
 62
     7
 10
331.13475020833692
 20
70.69875235966515
 30
0.0
 40
2.75
 50
0.00002
 51
90.000022999999999
  0
LINE
  5
3E4
  8
2
  6
0
 62
     7
 10
259.38475020833692
 20
73.448754359665145
 30
0.0
 11
331.13475020833692
 21
73.448753359665147
 31
0.0
  0
LINE
  5
3E5
  8
2
  6
0
 62
     7
 10
333.88475020833692
 20
70.448753359665147
 30
0.0
 11
333.88475020833692
 21
70.698753359665133
 31
0.0
  0
LINE
  5
3E6
  8
2
  6
0
 62
     7
 10
341.63475020833692
 20
53.405101359665139
 30
0.0
 11
341.63475020833692
 21
25.198738359665139
 31
0.0
  0
ARC
  5
3E7
  8
2
  6
0
 62
     7
 10
259.63475020833692
 20
17.698753359665151
 30
0.0
 40
2.75
 50
180.0
 51
270.0
  0
LINE
  5
3E8
  8
2
  6
0
 62
     7
 10
331.38474220833689
 20
14.948753359665149
 30
0.0
 11
259.63475020833692
 21
14.948753359665149
 31
0.0
  0
LINE
  5
3E9
  8
2
  6
0
 62
     7
 10
256.88475020833681
 20
17.948745359665139
 30
0.0
 11
256.88475020833681
 21
17.698753359665151
 31
0.0
  0
LINE
  5
3EA
  8
2
  6
0
 62
     7
 10
249.1347502083369
 20
35.198747359665148
 30
0.0
 11
249.1347502083369
 21
63.198750359665141
 31
0.0
  0
LINE
  5
3EB
  8
2
  6
0
 62
     7
 10
386.38475020833692
 20
66.198753359665147
 30
0.0
 11
410.38475020833681
 21
66.198753359665147
 31
0.0
  0
LINE
  5
3EC
  8
2
  6
0
 62
     7
 10
383.38475020833692
 20
64.698753359665147
 30
0.0
 11
386.38475020833692
 21
64.698753359665147
 31
0.0
  0
LINE
  5
3ED
  8
2
  6
0
 62
     7
 10
383.38475020833692
 20
60.19875335966514
 30
0.0
 11
386.38475020833692
 21
60.19875335966514
 31
0.0
  0
LINE
  5
3EE
  8
2
  6
0
 62
     7
 10
386.38475020833692
 20
66.198753359665147
 30
0.0
 11
386.38475020833692
 21
57.948753359665147
 31
0.0
  0
LINE
  5
3EF
  8
2
  6
0
 62
     7
 10
386.38475020833692
 20
57.948753359665147
 30
0.0
 11
410.38475020833681
 21
57.948753359665147
 31
0.0
  0
LINE
  5
3F0
  8
2
  6
0
 62
     7
 10
395.38475020833692
 20
66.698753359665147
 30
0.0
 11
395.38475020833692
 21
73.698753359665147
 31
0.0
  0
LINE
  5
3F1
  8
2
  6
0
 62
     7
 10
395.38475020833692
 20
73.698753359665147
 30
0.0
 11
383.38475020833692
 21
73.698753359665147
 31
0.0
  0
LINE
  5
3F2
  8
2
  6
0
 62
     7
 10
383.38475020833692
 20
66.698753359665147
 30
0.0
 11
395.38475020833692
 21
66.698753359665147
 31
0.0
  0
LINE
  5
3F3
  8
2
  6
0
 62
     7
 10
395.38475020833692
 20
67.698753359665133
 30
0.0
 11
410.38475020833681
 21
67.698753359665133
 31
0.0
  0
LINE
  5
3F4
  8
2
  6
0
 62
     7
 10
410.38475020833681
 20
72.698753359665133
 30
0.0
 11
395.38475020833692
 21
72.698753359665133
 31
0.0
  0
LINE
  5
3F5
  8
2
  6
0
 62
     7
 10
389.13475020833692
 20
56.44875335966514
 30
0.0
 11
412.13475020833681
 21
56.44875335966514
 31
0.0
  0
LINE
  5
3F6
  8
2
  6
0
 62
     7
 10
389.13475020833692
 20
55.69875335966514
 30
0.0
 11
389.13475020833692
 21
56.44875335966514
 31
0.0
  0
LINE
  5
3F7
  8
1
  6
ACAD_ISO10W100
 62
     7
 10
252.3847502083369
 20
74.198753359665147
 30
0.0
 11
252.3847502083369
 21
66.198753359665147
 31
0.0
  0
LINE
  5
3F8
  8
1
  6
ACAD_ISO10W100
 62
     7
 10
248.3847502083369
 20
70.198753359665133
 30
0.0
 11
256.38475020833692
 21
70.198753359665133
 31
0.0
  0
LINE
  5
3F9
  8
1
  6
ACAD_ISO10W100
 62
     7
 10
252.3847502083369
 20
30.448753359665151
 30
0.0
 11
252.3847502083369
 21
22.448753359665151
 31
0.0
  0
LINE
  5
3FA
  8
1
  6
ACAD_ISO10W100
 62
     7
 10
248.3847502083369
 20
26.448753359665151
 30
0.0
 11
256.38475020833692
 21
26.448753359665151
 31
0.0
  0
LINE
  5
3FB
  8
1
  6
ACAD_ISO10W100
 62
     7
 10
252.3847502083369
 20
22.198738359665139
 30
0.0
 11
252.3847502083369
 21
14.198738359665141
 31
0.0
  0
LINE
  5
3FC
  8
1
  6
ACAD_ISO10W100
 62
     7
 10
248.3847502083369
 20
18.198738359665139
 30
0.0
 11
256.38475020833692
 21
18.198738359665139
 31
0.0
  0
LINE
  5
3FD
  8
1
  6
ACAD_ISO10W100
 62
     7
 10
262.38475020833692
 20
48.198749359665143
 30
0.0
 11
262.38475020833692
 21
40.198749359665143
 31
0.0
  0
LINE
  5
3FE
  8
1
  6
ACAD_ISO10W100
 62
     7
 10
258.38475020833692
 20
44.198749359665143
 30
0.0
 11
266.38475020833692
 21
44.198749359665143
 31
0.0
  0
LINE
  5
3FF
  8
1
  6
ACAD_ISO10W100
 62
     7
 10
277.38475020833692
 20
48.19875335966514
 30
0.0
 11
277.38475020833692
 21
40.19875335966514
 31
0.0
  0
LINE
  5
400
  8
1
  6
ACAD_ISO10W100
 62
     7
 10
273.38475020833692
 20
44.198753359665147
 30
0.0
 11
281.38475020833692
 21
44.198753359665147
 31
0.0
  0
LINE
  5
401
  8
1
  6
ACAD_ISO10W100
 62
     7
 10
281.88475020833681
 20
48.19875335966514
 30
0.0
 11
281.88475020833681
 21
40.19875335966514
 31
0.0
  0
LINE
  5
402
  8
1
  6
ACAD_ISO10W100
 62
     7
 10
277.88475020833692
 20
44.198753359665147
 30
0.0
 11
285.88475020833692
 21
44.198753359665147
 31
0.0
  0
LINE
  5
403
  8
1
  6
ACAD_ISO10W100
 62
     7
 10
286.38475020833692
 20
48.19875335966514
 30
0.0
 11
286.38475020833692
 21
40.19875335966514
 31
0.0
  0
LINE
  5
404
  8
1
  6
ACAD_ISO10W100
 62
     7
 10
282.38475020833692
 20
44.198753359665147
 30
0.0
 11
290.38475020833692
 21
44.198753359665147
 31
0.0
  0
LINE
  5
405
  8
1
  6
ACAD_ISO10W100
 62
     7
 10
304.38475020833692
 20
48.19875335966514
 30
0.0
 11
304.38475020833692
 21
40.19875335966514
 31
0.0
  0
LINE
  5
406
  8
1
  6
ACAD_ISO10W100
 62
     7
 10
300.38475020833692
 20
44.198753359665147
 30
0.0
 11
308.38475020833692
 21
44.198753359665147
 31
0.0
  0
LINE
  5
407
  8
1
  6
ACAD_ISO10W100
 62
     7
 10
308.88475020833692
 20
48.19875335966514
 30
0.0
 11
308.88475020833692
 21
40.19875335966514
 31
0.0
  0
LINE
  5
408
  8
1
  6
ACAD_ISO10W100
 62
     7
 10
304.88475020833692
 20
44.198753359665147
 30
0.0
 11
312.88475020833692
 21
44.198753359665147
 31
0.0
  0
LINE
  5
409
  8
1
  6
ACAD_ISO10W100
 62
     7
 10
322.38475020833692
 20
48.19875335966514
 30
0.0
 11
322.38475020833692
 21
40.19875335966514
 31
0.0
  0
LINE
  5
40A
  8
1
  6
ACAD_ISO10W100
 62
     7
 10
318.38475020833692
 20
44.198753359665147
 30
0.0
 11
326.38475020833692
 21
44.198753359665147
 31
0.0
  0
LINE
  5
40B
  8
1
  6
ACAD_ISO10W100
 62
     7
 10
336.38475020833692
 20
57.198753359665147
 30
0.0
 11
336.38475020833692
 21
49.198753359665147
 31
0.0
  0
LINE
  5
40C
  8
1
  6
ACAD_ISO10W100
 62
     7
 10
332.38475020833692
 20
53.19875335966514
 30
0.0
 11
340.38475020833692
 21
53.19875335966514
 31
0.0
  0
LINE
  5
40D
  8
1
  6
ACAD_ISO10W100
 62
     7
 10
336.38475020833692
 20
49.198753359665147
 30
0.0
 11
336.38475020833692
 21
41.19875335966514
 31
0.0
  0
LINE
  5
40E
  8
1
  6
ACAD_ISO10W100
 62
     7
 10
332.38475020833692
 20
45.19875335966514
 30
0.0
 11
340.38475020833692
 21
45.19875335966514
 31
0.0
  0
LINE
  5
40F
  8
1
  6
ACAD_ISO10W100
 62
     7
 10
336.38475020833692
 20
39.198753359665147
 30
0.0
 11
336.38475020833692
 21
31.198753359665151
 31
0.0
  0
LINE
  5
410
  8
1
  6
ACAD_ISO10W100
 62
     7
 10
332.38475020833692
 20
35.198753359665147
 30
0.0
 11
340.38475020833692
 21
35.198753359665147
 31
0.0
  0
LINE
  5
411
  8
1
  6
ACAD_ISO10W100
 62
     7
 10
336.38475020833692
 20
31.198753359665151
 30
0.0
 11
336.38475020833692
 21
23.198753359665151
 31
0.0
  0
LINE
  5
412
  8
1
  6
ACAD_ISO10W100
 62
     7
 10
332.38475020833692
 20
27.198753359665151
 30
0.0
 11
340.38475020833692
 21
27.198753359665151
 31
0.0
  0
LINE
  5
413
  8
1
  6
ACAD_ISO10W100
 62
     7
 10
338.38474220833689
 20
22.198738359665139
 30
0.0
 11
338.38474220833689
 21
14.198738359665141
 31
0.0
  0
LINE
  5
414
  8
1
  6
ACAD_ISO10W100
 62
     7
 10
334.38474220833689
 20
18.198738359665139
 30
0.0
 11
342.38474220833689
 21
18.198738359665139
 31
0.0
  0
LINE
  5
415
  8
1
  6
ACAD_ISO10W100
 62
     7
 10
338.38475020833692
 20
65.948753359665147
 30
0.0
 11
338.38475020833692
 21
57.948753359665147
 31
0.0
  0
LINE
  5
416
  8
1
  6
ACAD_ISO10W100
 62
     7
 10
334.38475020833692
 20
61.94875335966514
 30
0.0
 11
342.38475020833692
 21
61.94875335966514
 31
0.0
  0
LINE
  5
417
  8
1
  6
ACAD_ISO10W100
 62
     7
 10
338.38475020833692
 20
74.198753359665147
 30
0.0
 11
338.38475020833692
 21
66.198753359665147
 31
0.0
  0
LINE
  5
418
  8
1
  6
ACAD_ISO10W100
 62
     7
 10
334.38475020833692
 20
70.198753359665133
 30
0.0
 11
342.38475020833692
 21
70.198753359665133
 31
0.0
  0
LINE
  5
419
  8
2
  6
0
 62
     7
 10
410.38475020833681
 20
57.948753359665147
 30
0.0
 11
412.13475020833681
 21
57.948753359665147
 31
0.0
  0
LINE
  5
41A
  8
2
  6
0
 62
     7
 10
412.13475020833681
 20
57.948753359665147
 30
0.0
 11
412.13475020833681
 21
56.44875335966514
 31
0.0
  0
LINE
  5
41B
  8
2
  6
0
 62
     7
 10
410.38475020833681
 20
14.948753359665149
 30
0.0
 11
412.13475020833681
 21
14.948753359665149
 31
0.0
  0
LINE
  5
41C
  8
2
  6
0
 62
     7
 10
412.13475020833681
 20
16.698753359665151
 30
0.0
 11
412.13475020833681
 21
14.948753359665149
 31
0.0
  0
LINE
  5
41D
  8
2
  6
0
 62
     7
 10
410.38475020833681
 20
12.198753359665149
 30
0.0
 11
410.38475020833681
 21
14.948753359665149
 31
0.0
1001
ACAD
1000
ASC_BOUNDS
1002
{
1070
    19
1005
4B4
1002
}
  0
LINE
  5
41E
  8
2
  6
0
 62
     7
 10
410.38475020833681
 20
16.698753359665151
 30
0.0
 11
410.38475020833681
 21
56.44875335966514
 31
0.0
1001
ACAD
1000
ASC_BOUNDS
1002
{
1070
    19
1005
4B4
1002
}
  0
LINE
  5
41F
  8
2
  6
0
 62
     7
 10
410.38475020833681
 20
57.948753359665147
 30
0.0
 11
410.38475020833681
 21
76.198753359665147
 31
0.0
1001
ACAD
1000
ASC_BOUNDS
1002
{
1070
    19
1005
4B4
1005
4B4
1002
}
  0
LINE
  5
420
  8
2
  6
0
 62
     7
 10
387.38475020833692
 20
24.198753359665151
 30
0.0
 11
410.38475020833681
 21
24.198753359665151
 31
0.0
  0
LINE
  5
421
  8
2
  6
0
 62
     7
 10
410.38475020833681
 20
70.198753359665133
 30
0.0
 11
410.38475020833681
 21
72.448753359665147
 31
0.0
  0
LINE
  5
422
  8
2
  6
0
 62
     7
 10
420.38475020833681
 20
74.198753359665147
 30
0.0
 11
416.38475020833692
 21
74.198753359665147
 31
0.0
1001
ACAD
1000
ASC_BOUNDS
1002
{
1070
    19
1005
4B4
1002
}
  0
LINE
  5
423
  8
2
  6
0
 62
     7
 10
416.38475020833692
 20
74.198753359665147
 30
0.0
 11
416.38475020833692
 21
66.198753359665147
 31
0.0
1001
ACAD
1000
ASC_BOUNDS
1002
{
1070
    19
1005
4B4
1005
4B4
1002
}
  0
LINE
  5
424
  8
2
  6
0
 62
     7
 10
416.38475020833692
 20
66.198753359665147
 30
0.0
 11
420.38475020833681
 21
66.198753359665147
 31
0.0
1001
ACAD
1000
ASC_BOUNDS
1002
{
1070
    19
1005
4B4
1002
}
  0
LINE
  5
425
  8
2
  6
0
 62
     7
 10
410.38475020833681
 20
72.448753359665147
 30
0.0
 11
416.38475020833692
 21
72.448753359665147
 31
0.0
1001
ACAD
1000
ASC_BOUNDS
1002
{
1070
    19
1005
4B4
1002
}
  0
LINE
  5
426
  8
2
  6
0
 62
     7
 10
416.38475020833692
 20
67.948753359665147
 30
0.0
 11
410.38475020833681
 21
67.948753359665147
 31
0.0
1001
ACAD
1000
ASC_BOUNDS
1002
{
1070
    19
1005
4B4
1002
}
  0
LINE
  5
427
  8
2
  6
0
 62
     7
 10
410.38475020833681
 20
62.07375335966514
 30
0.0
 11
410.38475020833681
 21
65.698753359665133
 31
0.0
  0
LINE
  5
428
  8
2
  6
0
 62
     7
 10
415.63475020833681
 20
64.448753359665133
 30
0.0
 11
410.38475020833681
 21
64.448753359665133
 31
0.0
1001
ACAD
1000
ASC_BOUNDS
1002
{
1070
    19
1005
4B4
1002
}
  0
LINE
  5
429
  8
2
  6
0
 62
     7
 10
415.63475020833681
 20
59.698753359665147
 30
0.0
 11
410.38475020833681
 21
59.698753359665147
 31
0.0
1001
ACAD
1000
ASC_BOUNDS
1002
{
1070
    19
1005
4B4
1002
}
  0
LINE
  5
42A
  8
2
  6
0
 62
     7
 10
415.63475020833681
 20
64.448753359665133
 30
0.0
 11
415.63475020833681
 21
59.698753359665147
 31
0.0
1001
ACAD
1000
ASC_BOUNDS
1002
{
1070
    19
1005
4B4
1002
}
  0
LINE
  5
42B
  8
2
  6
0
 62
     7
 10
412.63475020833681
 20
58.448753359665147
 30
0.0
 11
412.63475020833681
 21
55.69875335966514
 31
0.0
1001
ACAD
1000
ASC_BOUNDS
1002
{
1070
    19
1005
4B4
1002
}
  0
LINE
  5
42C
  8
2
  6
0
 62
     7
 10
412.63475020833681
 20
55.69875335966514
 30
0.0
 11
410.38475020833681
 21
55.69875335966514
 31
0.0
1001
ACAD
1000
ASC_BOUNDS
1002
{
1070
    19
1005
4B4
1002
}
  0
LINE
  5
42D
  8
2
  6
0
 62
     7
 10
412.63475020833681
 20
58.448753359665147
 30
0.0
 11
410.38475020833681
 21
58.448753359665147
 31
0.0
1001
ACAD
1000
ASC_BOUNDS
1002
{
1070
    19
1005
4B4
1002
}
  0
LINE
  5
42E
  8
2
  6
0
 62
     7
 10
412.63475020833681
 20
17.198753359665151
 30
0.0
 11
412.63475020833681
 21
14.44875335966514
 31
0.0
1001
ACAD
1000
ASC_BOUNDS
1002
{
1070
    19
1005
4B4
1002
}
  0
LINE
  5
42F
  8
2
  6
0
 62
     7
 10
412.63475020833681
 20
14.44875335966514
 30
0.0
 11
410.38475020833681
 21
14.44875335966514
 31
0.0
1001
ACAD
1000
ASC_BOUNDS
1002
{
1070
    19
1005
4B4
1002
}
  0
LINE
  5
430
  8
2
  6
0
 62
     7
 10
412.63475020833681
 20
17.198753359665151
 30
0.0
 11
410.38475020833681
 21
17.198753359665151
 31
0.0
1001
ACAD
1000
ASC_BOUNDS
1002
{
1070
    19
1005
4B4
1002
}
  0
LINE
  5
431
  8
2
  6
0
 62
     7
 10
410.38475020833681
 20
18.19875335966514
 30
0.0
 11
416.63475020833681
 21
18.19875335966514
 31
0.0
1001
ACAD
1000
ASC_BOUNDS
1002
{
1070
    19
1005
4B4
1002
}
  0
LINE
  5
432
  8
2
  6
0
 62
     7
 10
416.63475020833681
 20
18.19875335966514
 30
0.0
 11
416.63475020833681
 21
54.698753359665147
 31
0.0
1001
ACAD
1000
ASC_BOUNDS
1002
{
1070
    19
1005
4B4
1002
}
  0
LINE
  5
433
  8
2
  6
0
 62
     7
 10
416.63475020833681
 20
54.698753359665147
 30
0.0
 11
410.38475020833681
 21
54.698753359665147
 31
0.0
1001
ACAD
1000
ASC_BOUNDS
1002
{
1070
    19
1005
4B4
1002
}
  0
LINE
  5
434
  8
2
  6
0
 62
     7
 10
410.38475020833681
 20
25.698753359665151
 30
0.0
 11
416.63475020833681
 21
25.698753359665151
 31
0.0
  0
POLYLINE
  5
435
  8
4
  6
0
 62
     7
 66
     1
 10
0.0
 20
0.0
 30
0.0
 70
     1
  0
VERTEX
  5
1908
  8
4
  6
0
 62
     7
 10
391.38475020833692
 20
73.948753359665133
 30
0.0
  0
VERTEX
  5
1909
  8
4
  6
0
 62
     7
 10
391.38475020833692
 20
66.448753359665133
 30
0.0
  0
VERTEX
  5
190A
  8
4
  6
0
 62
     7
 10
395.38475020833692
 20
66.448753359665133
 30
0.0
  0
VERTEX
  5
190B
  8
4
  6
0
 62
     7
 10
395.38475020833692
 20
68.198753359665133
 30
0.0
  0
VERTEX
  5
190C
  8
4
  6
0
 62
     7
 10
401.88475020833681
 20
68.198753359665133
 30
0.0
  0
VERTEX
  5
190D
  8
4
  6
0
 62
     7
 10
401.88475020833681
 20
72.198753359665147
 30
0.0
  0
VERTEX
  5
190E
  8
4
  6
0
 62
     7
 10
395.38475020833692
 20
72.198753359665147
 30
0.0
  0
VERTEX
  5
190F
  8
4
  6
0
 62
     7
 10
395.38475020833692
 20
73.948753359665133
 30
0.0
  0
SEQEND
  5
1910
  8
4
  6
0
 62
     7
  0
DIMENSION
  5
442
  8
5
 62
     7
  2
*D12
 10
286.38475020833692
 20
82.198753359665147
 30
0.0
 11
274.38475020833692
 21
82.198753359665147
 31
0.0
 70
     0
 13
262.38475020833692
 23
44.198749359665143
 33
0.0
 14
286.38475020833692
 24
44.198751359665152
 34
0.0
1001
ACAD
1000
DSTYLE
1002
{
1070
    41
1040
3.0
1070
   140
1040
3.0
1070
   173
1070
     1
1070
   271
1070
     0
1002
}
  0
DIMENSION
  5
443
  8
5
 62
     7
  2
*D3
 10
304.38475020833692
 20
82.198753359665147
 30
0.0
 11
295.38475020833692
 21
82.198753359665147
 31
0.0
 70
     0
 13
286.38475020833692
 23
44.198751359665152
 33
0.0
 14
304.38475020833692
 24
44.198751359665152
 34
0.0
1001
ACAD
1000
DSTYLE
1002
{
1070
    41
1040
3.0
1070
   140
1040
3.0
1070
   173
1070
     1
1070
   271
1070
     0
1002
}
  0
DIMENSION
  5
444
  8
5
 62
     7
  2
*D23
 10
322.38475020833692
 20
82.198753359665147
 30
0.0
 11
313.38475020833692
 21
82.198753359665147
 31
0.0
 70
     0
 13
304.38475020833692
 23
44.198751359665152
 33
0.0
 14
322.38475020833692
 24
44.198753359665147
 34
0.0
1001
ACAD
1000
DSTYLE
1002
{
1070
    41
1040
3.0
1070
   140
1040
3.0
1070
   173
1070
     1
1070
   271
1070
     0
1002
}
  0
DIMENSION
  5
445
  8
5
 62
     7
  2
*D6
 10
336.38475020833692
 20
82.198753359665147
 30
0.0
 11
329.38475020833692
 21
82.198753359665147
 31
0.0
 70
     0
 13
322.38475020833692
 23
44.198753359665147
 33
0.0
 14
336.38475020833692
 24
53.19875335966514
 34
0.0
1001
ACAD
1000
DSTYLE
1002
{
1070
    41
1040
3.0
1070
   140
1040
3.0
1070
   173
1070
     1
1070
   271
1070
     0
1002
}
  0
DIMENSION
  5
446
  8
5
 62
     7
  2
*D5
 10
344.38475020833681
 20
82.198753359665147
 30
0.0
 11
348.4747502083369
 21
82.198753359665147
 31
0.0
 70
     0
 13
336.38475020833692
 23
53.19875335966514
 33
0.0
 14
344.38475020833681
 24
70.198753359665133
 34
0.0
1001
ACAD
1000
DSTYLE
1002
{
1070
    41
1040
3.0
1070
   140
1040
3.0
1070
   173
1070
     1
1070
   271
1070
     0
1002
}
  0
DIMENSION
  5
449
  8
5
 62
     7
  2
*D17
 10
257.63475020833692
 20
55.69874935966515
 30
0.0
 11
257.63475020833692
 21
44.198751359665202
 31
0.0
 70
     0
 13
250.8847502083369
 23
32.698753359665147
 33
0.0
 14
250.8847502083369
 24
55.69874935966515
 34
0.0
 50
90.0
1001
ACAD
1000
DSTYLE
1002
{
1070
    41
1040
3.0
1070
   140
1040
3.0
1070
   173
1070
     1
1070
   271
1070
     0
1002
}
  0
DIMENSION
  5
44A
  8
5
 62
     7
  2
*D11
 10
357.13475020833692
 20
45.19875335966514
 30
0.0
 11
357.13475020833692
 21
40.198753359665197
 31
0.0
 70
     0
 53
90.0
 13
336.38475020833692
 23
35.198753359665147
 33
0.0
 14
336.38475020833692
 24
45.19875335966514
 34
0.0
 50
90.0
1001
ACAD
1000
DSTYLE
1002
{
1070
    41
1040
3.0
1070
   140
1040
3.0
1070
   173
1070
     1
1070
   271
1070
     0
1002
}
  0
DIMENSION
  5
44B
  8
5
 62
     7
  2
*D10
 10
362.88475020833692
 20
53.19875335966514
 30
0.0
 11
362.88475020833692
 21
40.198753359665197
 31
0.0
 70
     0
 53
90.0
 13
336.38475020833692
 23
27.198753359665151
 33
0.0
 14
336.38475020833692
 24
53.19875335966514
 34
0.0
 50
90.0
1001
ACAD
1000
DSTYLE
1002
{
1070
    41
1040
3.0
1070
   140
1040
3.0
1070
   173
1070
     1
1070
   271
1070
     0
1002
}
  0
DIMENSION
  5
44C
  8
5
 62
     7
  2
*D22
 10
332.38475020833692
 20
92.698753359665147
 30
0.0
 11
295.38475020833692
 21
92.698753359665147
 31
0.0
 70
     0
 13
258.38475020833692
 23
70.198754359665145
 33
0.0
 14
332.38475020833692
 24
70.698753359665133
 34
0.0
1001
ACAD
1000
DSTYLE
1002
{
1070
    41
1040
3.0
1070
   140
1040
3.0
1070
   173
1070
     1
1070
   271
1070
     0
1002
}
  0
DIMENSION
  5
44D
  8
5
 62
     7
  2
*D21
 10
339.88475020833692
 20
100.1987533596651
 30
0.0
 11
295.38475020833692
 21
100.1987533596651
 31
0.0
 70
     0
 13
250.8847502083369
 23
63.19875335966514
 33
0.0
 14
339.88475020833692
 24
55.448753359665147
 34
0.0
1001
ACAD
1000
DSTYLE
1002
{
1070
    41
1040
3.0
1070
   140
1040
3.0
1070
   173
1070
     1
1070
   271
1070
     0
1002
}
  0
DIMENSION
  5
44E
  8
5
 62
     7
  2
*D18
 10
344.38475020833681
 20
106.9487533596651
 30
0.0
 11
295.38475020833692
 21
106.9487533596651
 31
0.0
 70
     0
 13
246.3847502083369
 23
70.198753359665133
 33
0.0
 14
344.38475020833681
 24
70.198753359665133
 34
0.0
1001
ACAD
1000
DSTYLE
1002
{
1070
    41
1040
3.0
1070
   140
1040
3.0
1070
   173
1070
     1
1070
   271
1070
     0
1002
}
  0
DIMENSION
  5
44F
  8
5
 62
     7
  2
*D20
 10
338.38475020833692
 20
-0.0512466403348526
 30
0.0
 11
295.38475020833692
 21
-0.0512466403348526
 31
0.0
 70
     0
 13
252.3847502083369
 23
25.448753359665151
 33
0.0
 14
338.38475020833692
 24
61.94875335966514
 34
0.0
1001
ACAD
1000
DSTYLE
1002
{
1070
    41
1040
3.0
1070
   140
1040
3.0
1070
   173
1070
     1
1070
   271
1070
     0
1002
}
  0
DIMENSION
  5
450
  8
5
 62
     7
  2
*D16
 10
237.8847502083369
 20
64.198753359665147
 30
0.0
 11
237.8847502083369
 21
48.07375335966519
 31
0.0
 70
     0
 53
90.0
 13
252.3847502083369
 23
31.948753359665151
 33
0.0
 14
252.3847502083369
 24
64.198753359665147
 34
0.0
 50
90.0
1001
ACAD
1000
DSTYLE
1002
{
1070
    41
1040
3.0
1070
   174
1070
     0
1070
   289
1070
     3
1070
   140
1040
3.0
1070
   173
1070
     1
1070
   271
1070
     2
1002
}
  0
DIMENSION
  5
451
  8
5
 62
     7
  2
*D13
 10
237.8847502083369
 20
71.698753359665147
 30
0.0
 11
240.97475020833679
 21
74.69875335966519
 31
0.0
 70
     0
 53
90.0
 13
252.3847502083369
 23
64.198753359665147
 33
0.0
 14
259.38475020833692
 24
71.698753359665147
 34
0.0
 50
90.0
1001
ACAD
1000
DSTYLE
1002
{
1070
    41
1040
3.0
1070
   140
1040
3.0
1070
   173
1070
     1
1070
   271
1070
     1
1002
}
  0
DIMENSION
  5
452
  8
5
 62
     7
  2
*D19
 10
230.3847502083369
 20
61.948753359665183
 30
0.0
 11
230.3847502083369
 21
44.198753359665197
 31
0.0
 70
     0
 53
90.0
 13
252.3847502083369
 23
26.448753359665151
 33
0.0
 14
338.38475020833692
 24
61.94875335966514
 34
0.0
 50
90.0
1001
ACAD
1000
DSTYLE
1002
{
1070
    41
1040
3.0
1070
   140
1040
3.0
1070
   173
1070
     1
1070
   271
1070
     0
1002
}
  0
DIMENSION
  5
453
  8
5
 62
     7
  2
*D15
 10
224.3847502083369
 20
71.698753359665147
 30
0.0
 11
224.38475020833681
 21
44.198753359665183
 31
0.0
 70
     0
 53
90.0
 13
259.38475020833692
 23
16.698753359665151
 33
0.0
 14
259.38475020833692
 24
71.698753359665147
 34
0.0
 50
90.0
1001
ACAD
1000
DSTYLE
1002
{
1070
    41
1040
3.0
1070
   140
1040
3.0
1070
   173
1070
     1
1070
   271
1070
     0
1002
}
  0
DIMENSION
  5
454
  8
5
 62
     7
  2
*D14
 10
218.3847502083369
 20
76.198753359665162
 30
0.0
 11
218.38475020833681
 21
44.198749359665193
 31
0.0
 70
     0
 53
90.0
 13
252.3847502083369
 23
12.198745359665139
 33
0.0
 14
252.3847502083369
 24
76.198753359665147
 34
0.0
 50
90.0
1001
ACAD
1000
DSTYLE
1002
{
1070
    41
1040
3.0
1070
   140
1040
3.0
1070
   173
1070
     1
1070
   271
1070
     0
1002
}
  0
DIMENSION
  5
455
  8
5
 62
     7
  2
*D8
 10
416.63475020833681
 20
34.698753359665147
 30
0.0
 11
402.88475020833681
 21
34.698753359665147
 31
0.0
 70
     0
 13
389.13475020833692
 23
24.198753359665151
 33
0.0
 14
416.63475020833681
 24
18.19875335966514
 34
0.0
1001
ACAD
1000
DSTYLE
1002
{
1070
    41
1040
3.0
1070
   140
1040
3.0
1070
   173
1070
     1
1070
   271
1070
     1
1002
}
  0
DIMENSION
  5
456
  8
5
 62
     7
  2
*D9
 10
389.13475020833692
 20
42.198753359665147
 30
0.0
 11
398.22475020833679
 21
42.198753359665147
 31
0.0
 70
     0
 13
383.63475020833681
 23
30.198753359665151
 33
0.0
 14
389.13475020833692
 24
32.698753359665147
 34
0.0
1001
ACAD
1000
DSTYLE
1002
{
1070
    41
1040
3.0
1070
   140
1040
3.0
1070
   173
1070
     1
1070
   271
1070
     1
1002
}
  0
DIMENSION
  5
457
  8
5
 62
     7
  2
*D4
 10
420.38475020833681
 20
106.9487533596651
 30
0.0
 11
401.88475020833681
 21
106.9487533596651
 31
0.0
 70
     0
 13
383.38475020833692
 23
74.198753359665147
 33
0.0
 14
420.38475020833681
 24
74.198753359665147
 34
0.0
1001
ACAD
1000
DSTYLE
1002
{
1070
    41
1040
3.0
1070
   140
1040
3.0
1070
   173
1070
     1
1070
   271
1070
     0
1002
}
  0
DIMENSION
  5
458
  8
5
 62
     7
  2
*D24
 10
420.38475020833681
 20
99.948753359665147
 30
0.0
 11
415.38475020833681
 21
99.948753359665147
 31
0.0
 70
     0
 13
410.38475020833681
 23
72.698753359665133
 33
0.0
 14
420.38475020833681
 24
74.198753359665147
 34
0.0
1001
ACAD
1000
DSTYLE
1002
{
1070
    41
1040
3.0
1070
   140
1040
3.0
1070
   173
1070
     1
1070
   271
1070
     0
1002
}
  0
DIMENSION
  5
459
  8
5
 62
     7
  2
*D7
 10
375.38475020833692
 20
64.698753359665147
 30
0.0
 11
375.38475020833692
 21
73.788753359665208
 31
0.0
 70
     0
  1
<>
 13
383.38475020833692
 23
60.19875335966514
 33
0.0
 14
383.38475020833692
 24
64.698753359665147
 34
0.0
 50
90.0
1001
ACAD
1000
DSTYLE
1002
{
1070
    41
1040
3.0
1070
   140
1040
3.0
1070
   173
1070
     1
1070
   271
1070
     1
1002
}
  0
TEXT
  5
45C
  8
5
 62
     7
 10
332.13475020833692
 20
-23.051246640334849
 30
0.0
 40
3.0
  1
MBM/MBT 090603
  7
NORMAL
  0
INSERT
  5
496
  8
0
  6
CONTINUOUS
 62
     7
  2
*X29
 10
0.0
 20
0.0
 30
0.0
1001
ACAD
1000
HATCH
1002
{
1070
    19
1000
_USER
1040
3.0
1040
0.7853981633974483
1000
R14_HATCH_DATA
1000
496
1011
1.0
1021
0.0
1031
0.0
1021
0.0
1031
0.0
1011
0.0
1021
0.0
1031
0.0
1021
1.0
1031
0.0
1011
0.0
1021
0.0
1031
0.0
1021
0.0
1031
1.0
1040
0.0
1010
0.0
1020
0.0
1030
1.0
1000
_USER
1070
     0
1070
     0
1071
        4
1071
        7
1070
     1
1070
     1
1071
        9
1040
410.38475020833681
1040
72.698753359665133
1040
0.0
1040
410.38475020833681
1040
76.198753359665147
1040
0.0
1040
385.38475020833692
1040
76.198753359665147
1040
0.4142135623730938
1040
383.38475020833692
1040
74.198753359665147
1040
0.0
1040
383.38475020833692
1040
73.698753359665147
1040
0.0
1040
391.38475020833692
1040
73.698753359665147
1040
0.0
1040
391.38475020833692
1040
73.948753359665133
1040
0.0
1040
395.38475020833692
1040
73.948753359665133
1040
0.0
1040
395.38475020833692
1040
72.698753359665133
1040
0.0
1071
        0
1071
        7
1070
     0
1070
     1
1071
       10
1040
395.38475020833692
1040
67.698753359665133
1040
395.38475020833692
1040
66.448753359665133
1040
391.38475020833692
1040
66.448753359665133
1040
391.38475020833692
1040
66.698753359665147
1040
383.38475020833692
1040
66.698753359665147
1040
383.38475020833692
1040
64.698753359665147
1040
386.38475020833692
1040
64.698753359665147
1040
386.38475020833692
1040
66.198753359665147
1040
410.38475020833681
1040
66.198753359665147
1040
410.38475020833681
1040
67.698753359665133
1071
        0
1071
        7
1070
     0
1070
     1
1071
       10
1040
412.13475020833681
1040
56.44875335966514
1040
412.13475020833681
1040
57.948753359665147
1040
410.38475020833681
1040
57.948753359665147
1040
386.38475020833692
1040
57.948753359665147
1040
386.38475020833692
1040
60.19875335966514
1040
383.38475020833692
1040
60.19875335966514
1040
383.38475020833692
1040
44.198753359665147
1040
389.13475020833692
1040
44.198753359665147
1040
389.13475020833692
1040
55.69875335966514
1040
389.13475020833692
1040
56.44875335966514
1071
        0
1071
        7
1070
     1
1070
     1
1071
       11
1040
383.38475020833692
1040
14.198753359665149
1040
0.4142135623730951
1040
385.38475020833692
1040
12.198753359665149
1040
0.0
1040
410.38475020833681
1040
12.198753359665149
1040
0.0
1040
410.38475020833681
1040
14.948753359665149
1040
0.0
1040
412.13475020833681
1040
14.948753359665149
1040
0.0
1040
412.13475020833681
1040
16.698753359665151
1040
0.0
1040
387.38475020833692
1040
16.698753359665151
1040
0.0
1040
387.38475020833692
1040
32.698753359665147
1040
0.0
1040
389.13475020833692
1040
32.698753359665147
1040
0.0
1040
389.13475020833692
1040
44.198753359665147
1040
0.0
1040
383.38475020833692
1040
44.198753359665147
1040
0.0
1071
        0
1070
     0
1070
     0
1040
0.7853981633974483
1040
3.0
1070
     0
1070
     1
1040
0.7853981633974483
1040
268.38475020833692
1040
64.198753359665147
1040
-2.1213203435596419
1040
2.1213203435596419
1070
     0
1040
0.2462864818900387
1071
        4
1040
404.4777844461795
1040
74.180676768814294
1040
0.0
1040
404.72418705924241
1040
67.038368598122531
1040
0.0
1040
401.27455240821212
1040
57.186909309407611
1040
0.0
1040
386.24400122173978
1040
36.745131223199742
1040
0.0
1002
}
  0
INSERT
  5
4B4
  8
0
  6
CONTINUOUS
 62
     7
  2
*X30
 10
0.0
 20
0.0
 30
0.0
1001
ACAD
1000
HATCH
1002
{
1070
    19
1000
_USER
1040
3.0
1040
2.3561944901923439
1000
ASC_BOUNDS
1070
     2
1070
     1
1070
    21
1005
3D3
1005
3D2
1005
3D4
1005
41D
1005
42F
1005
42E
1005
430
1005
431
1005
432
1005
433
1005
41E
1005
42C
1005
42B
1005
42D
1005
429
1005
42A
1005
428
1005
41F
1005
426
1005
423
1005
424
1070
     1
1070
     6
1005
3D0
1005
422
1005
423
1005
425
1005
41F
1005
3D1
1000
ASC_SEEDPOINT
1011
412.36266371752879
1021
0.0
1031
0.0
1021
74.919536277592385
1031
0.0
1000
R14_HATCH_DATA
1000
4B4
1011
1.0
1021
0.0
1031
0.0
1021
0.0
1031
0.0
1011
0.0
1021
0.0
1031
0.0
1021
1.0
1031
0.0
1011
0.0
1021
0.0
1031
0.0
1021
0.0
1031
1.0
1040
0.0
1010
0.0
1020
0.0
1030
1.0
1000
_USER
1070
     0
1070
     1
1071
        2
1071
        7
1070
     1
1070
     1
1071
        6
1040
410.38475020833681
1040
76.198753359665162
1040
0.0
1040
410.38475020833681
1040
72.448753359665147
1040
0.0
1040
416.38475020833692
1040
72.448753359665147
1040
0.0
1040
416.38475020833692
1040
74.198753359665147
1040
0.0
1040
420.38475020833681
1040
74.198753359665147
1040
0.4142135623730934
1040
418.3847502083367
1040
76.198753359665147
1040
0.0
1071
        6
1005
3D1
1005
41F
1005
425
1005
423
1005
422
1005
3D0
1071
        7
1070
     1
1070
     1
1071
       23
1040
416.38475020833692
1040
66.198753359665147
1040
0.0
1040
416.38475020833692
1040
67.948753359665147
1040
0.0
1040
410.38475020833681
1040
67.948753359665147
1040
0.0
1040
410.38475020833681
1040
64.448753359665133
1040
0.0
1040
415.63475020833681
1040
64.448753359665133
1040
0.0
1040
415.63475020833681
1040
59.698753359665147
1040
0.0
1040
410.38475020833681
1040
59.698753359665147
1040
0.0
1040
410.38475020833681
1040
58.448753359665147
1040
0.0
1040
412.63475020833692
1040
58.448753359665147
1040
0.0
1040
412.63475020833692
1040
55.69875335966514
1040
0.0
1040
410.38475020833692
1040
55.69875335966514
1040
0.0
1040
410.38475020833681
1040
54.698753359665147
1040
0.0
1040
416.6347502083367
1040
54.69875335966514
1040
0.0
1040
416.63475020833692
1040
18.19875335966514
1040
0.0
1040
410.38475020833681
1040
18.19875335966514
1040
0.0
1040
410.38475020833692
1040
17.198753359665151
1040
0.0
1040
412.63475020833692
1040
17.198753359665151
1040
0.0
1040
412.63475020833692
1040
14.44875335966514
1040
0.0
1040
410.38475020833692
1040
14.44875335966514
1040
0.0
1040
410.38475020833681
1040
12.198753359665149
1040
0.0
1040
418.38475020833681
1040
12.198753359665149
1040
0.4142135623730951
1040
420.38475020833681
1040
14.198753359665149
1040
0.0
1040
420.38475020833681
1040
66.198753359665147
1040
0.0
1071
       21
1005
424
1005
423
1005
426
1005
41F
1005
428
1005
42A
1005
429
1005
42D
1005
42B
1005
42C
1005
41E
1005
433
1005
432
1005
431
1005
430
1005
42E
1005
42F
1005
41D
1005
3D4
1005
3D2
1005
3D3
1070
     0
1070
     0
1040
2.3561944901923439
1040
3.0
1070
     0
1070
     1
1040
2.3561944901923439
1040
268.38475020833692
1040
64.198753359665147
1040
-2.1213203435596419
1040
-2.1213203435596419
1070
     0
1040
0.2462864818900387
1071
        2
1040
412.36266371752879
1040
74.919536277592385
1040
0.0
1040
417.78351830713677
1040
65.068076988877465
1040
0.0
1002
}
  0
LINE
  5
4F5
  8
1
  6
ACAD_ISO10W100
 62
     7
 10
380.38475020833692
 20
44.198753359665147
 30
0.0
 11
425.24910041528102
 21
44.198753359665147
 31
0.0
  0
DIMENSION
  5
50A
  8
1
  6
CONTINUOUS
 62
     7
  2
*D0
 10
281.88475020833681
 20
27.023754359665151
 30
0.0
 11
290.97475020833679
 21
27.023754359665151
 31
0.0
 70
     0
 13
277.38475020833692
 23
44.198750624971261
 33
0.0
 14
281.88475020833681
 24
44.261251359665152
 34
0.0
1001
ACAD
1000
DSTYLE
1002
{
1070
    41
1040
3.0
1070
   140
1040
3.0
1070
   271
1070
     1
1002
}
  0
DIMENSION
  5
518
  8
1
  6
CONTINUOUS
 62
     7
  2
*D1
 10
286.38475020833692
 20
59.698753359665147
 30
0.0
 11
295.47475020833679
 21
59.698753359665147
 31
0.0
 70
     0
 13
281.88475020833681
 23
44.261251359665152
 33
0.0
 14
286.38475020833692
 24
44.19875099231821
 34
0.0
1001
ACAD
1000
DSTYLE
1002
{
1070
    41
1040
3.0
1070
   140
1040
3.0
1070
   271
1070
     1
1002
}
  0
DIMENSION
  5
576
  8
5
  6
CONTINUOUS
 62
     7
  2
*D2
 10
308.88475020833692
 20
59.439402108957601
 30
0.0
 11
317.97475020833679
 21
59.439402108957601
 31
0.0
 70
     0
 13
304.38475020833692
 23
44.198751359665152
 33
0.0
 14
308.88475020833692
 24
44.198753359665147
 34
0.0
1001
ACAD
1000
DSTYLE
1002
{
1070
     6
1000

1070
   173
1070
     1
1070
     7
1000

1070
    41
1040
3.0
1070
   140
1040
3.0
1070
   271
1070
     1
1002
}
  0
DIMENSION
  5
1121
  8
5
  6
CONTINUOUS
  2
*D25
 10
261.33767153993182
 20
43.516014958766
 30
0.0
 11
272.30267935546948
 21
50.665609604981789
 31
0.0
 70
     3
 15
263.43182887674192
 25
44.881483760564258
 35
0.0
 40
0.0
1001
ACAD
1000
DSTYLE
1002
{
1070
   271
1070
     1
1070
   288
1070
     1
1002
}
  0
DIMENSION
  5
113E
  8
5
  6
CONTINUOUS
  2
*D26
 10
334.67104082561451
 20
43.740775255724941
 30
0.0
 11
357.29769655765398
 21
62.990928727079528
 31
0.0
 70
   131
 15
338.09845959105928
 25
46.656731463605318
 35
0.0
 40
0.0
1001
ACAD
1000
DSTYLE
1002
{
1070
   271
1070
     1
1070
   288
1070
     1
1002
}
  0
TEXT
  5
1239
  8
SCHRIFT-025
 62
     7
 10
338.50923363621428
 20
-59.715423268813957
 30
0.0
 40
2.5
  1
Norm
  0
POLYLINE
  5
123A
  8
XKANTEN-07
 62
     7
 66
     1
 10
0.0
 20
0.0
 30
0.0
 70
     1
  0
VERTEX
  5
195E
  8
XKANTEN-07
 62
     7
 10
287.01742208974781
 20
-26.6748337686229
 30
0.0
  0
VERTEX
  5
195F
  8
XKANTEN-07
 62
     7
 10
467.01742208974781
 20
-26.6748337686229
 30
0.0
  0
VERTEX
  5
1960
  8
XKANTEN-07
 62
     7
 10
467.01742208974781
 20
-81.664833768622913
 30
0.0
  0
VERTEX
  5
1961
  8
XKANTEN-07
 62
     7
 10
287.01742208974781
 20
-81.664833768622913
 30
0.0
  0
SEQEND
  5
1962
  8
XKANTEN-07
 62
     7
  0
LINE
  5
123B
  8
XKANTEN-07
 62
     7
 10
287.01742208974781
 20
-43.594833768622919
 30
0.0
 11
467.01742208974781
 21
-43.594833768622919
 31
0.0
  0
LINE
  5
123C
  8
XKANTEN-025
 62
     7
 10
287.01742208974781
 20
-47.824833768622902
 30
0.0
 11
380.6574220897478
 21
-47.824833768622902
 31
0.0
  0
LINE
  5
123D
  8
XKANTEN-025
 62
     7
 10
287.01742208974781
 20
-52.054833768622892
 30
0.0
 11
380.6574220897478
 21
-52.054833768622892
 31
0.0
  0
LINE
  5
123E
  8
XKANTEN-025
 62
     7
 10
287.01742208974781
 20
-56.28483376862291
 30
0.0
 11
380.6574220897478
 21
-56.28483376862291
 31
0.0
  0
LINE
  5
123F
  8
XKANTEN-025
 62
     7
 10
287.01742208974781
 20
-60.5148337686229
 30
0.0
 11
380.6574220897478
 21
-60.5148337686229
 31
0.0
  0
LINE
  5
1240
  8
XKANTEN-025
 62
     7
 10
287.01742208974781
 20
-77.434833768622894
 30
0.0
 11
467.01742208974781
 21
-77.434833768622923
 31
0.0
  0
TEXT
  5
1241
  8
SCHRIFT-025
 62
     7
 10
340.18742208974783
 20
-30.474833768622918
 30
0.0
 40
2.5
  1
(Zul.Abw.)
  0
TEXT
  5
1242
  8
SCHRIFT-025
 62
     7
 10
338.58907065560402
 20
-51.048785740370342
 30
0.0
 40
2.5
  1
Bearb.
 41
0.9
  0
TEXT
  5
1243
  8
SCHRIFT-025
 62
     7
 10
338.42225322969529
 20
-55.291236075811213
 30
0.0
 40
2.5
  1
Gepr.
  0
LINE
  5
1244
  8
XKANTEN-07
 62
     7
 10
337.47742208974779
 20
-64.744833768622897
 30
0.0
 11
467.01742208974781
 21
-64.744833768622897
 31
0.0
  0
TEXT
  5
1245
  8
SCHRIFT-025
 62
     7
 10
340.18742208974783
 20
-80.823587161318585
 30
0.0
 40
2.5
  1
(Urspr.:)
 41
0.9
  0
INSERT
  5
1246
  8
5
  6
CONTINUOUS
  2
*U31
 10
0.0
 20
0.0
 30
0.0
  0
TEXT
  5
1247
  8
SCHRIFT-025
 62
     7
 10
296.60724967789702
 20
-80.818377224502314
 30
0.0
 40
2.5
  1
Änderung
  0
LINE
  5
1248
  8
XKANTEN-025
 62
     7
 10
287.01742208974781
 20
-64.744833768622897
 30
0.0
 11
337.47742208974779
 21
-64.744833768622897
 31
0.0
  0
LINE
  5
1249
  8
XKANTEN-025
 62
     7
 10
287.01742208974781
 20
-68.974833768622915
 30
0.0
 11
337.47742208974779
 21
-68.974833768622915
 31
0.0
  0
LINE
  5
124A
  8
XKANTEN-025
 62
     7
 10
287.01742208974781
 20
-73.204833768622905
 30
0.0
 11
337.47742208974779
 21
-73.204833768622905
 31
0.0
  0
LINE
  5
124B
  8
XKANTEN-025
 62
     7
 10
294.63742208974782
 20
-43.594833768622919
 30
0.0
 11
294.63742208974782
 21
-81.664833768622913
 31
0.0
  0
TEXT
  5
124C
  8
SCHRIFT-025
 62
     7
 10
287.59939878775123
 20
-80.818377224502342
 30
0.0
 40
2.5
  1
Zust.
 41
0.9
  0
LINE
  5
124D
  8
XKANTEN-025
 62
     7
 10
329.85742208974779
 20
-43.594833768622919
 30
0.0
 11
329.85742208974779
 21
-81.664833768622913
 31
0.0
  0
LINE
  5
124E
  8
XKANTEN-025
 62
     7
 10
317.1574220897478
 20
-43.594833768622919
 30
0.0
 11
317.1574220897478
 21
-81.664833768622913
 31
0.0
  0
LINE
  5
124F
  8
XKANTEN-07
 62
     7
 10
337.47742208974779
 20
-26.6748337686229
 30
0.0
 11
337.47742208974779
 21
-81.664833768622913
 31
0.0
  0
TEXT
  5
1250
  8
SCHRIFT-025
 62
     7
 10
318.11724967789701
 20
-80.818377224502314
 30
0.0
 40
2.5
  1
Datum
  0
TEXT
  5
1251
  8
SCHRIFT-025
 62
     7
 10
330.16773746531601
 20
-80.818377224502314
 30
0.0
 40
2.5
  1
Name
 41
0.9
  0
LINE
  5
1252
  8
XKANTEN-025
 62
     7
 10
380.6574220897478
 20
-33.011150094276992
 30
0.0
 11
467.01742208974781
 21
-33.011150094276992
 31
0.0
  0
INSERT
  5
1253
  8
5
  6
CONTINUOUS
  2
*U32
 10
0.0
 20
0.0
 30
0.0
  0
INSERT
  5
1254
  8
5
  6
CONTINUOUS
  2
*U33
 10
0.0
 20
0.0
 30
0.0
  0
TEXT
  5
1255
  8
SCHRIFT-025
 62
     7
 10
382.43813984261311
 20
-30.703129534935609
 30
0.0
 40
2.5
  1
Maßstab
  0
TEXT
  5
1256
  8
SCHRIFT-025
 62
     7
 10
382.46424145369929
 20
-47.078171766702013
 30
0.0
 40
2.5
  1
(Benennung)
  0
TEXT
  5
1257
  8
SCHRIFT-025
 62
     7
 10
383.36742208974778
 20
-80.823587161318585
 30
0.0
 40
2.5
  1
(Ers.f.:)
 41
0.9
  0
LINE
  5
1258
  8
XKANTEN-025
 62
     7
 10
347.63742208974782
 20
-43.594833768622919
 30
0.0
 11
347.63742208974782
 21
-60.5148337686229
 31
0.0
  0
LINE
  5
1259
  8
XKANTEN-025
 62
     7
 10
362.87742208974782
 20
-26.6748337686229
 30
0.0
 11
362.87742208974782
 21
-64.744833768622897
 31
0.0
  0
LINE
  5
125A
  8
XKANTEN-07
 62
     7
 10
380.6574220897478
 20
-26.6748337686229
 30
0.0
 11
380.6574220897478
 21
-81.664833768622913
 31
0.0
  0
INSERT
  5
125B
  8
5
  6
CONTINUOUS
  2
*U34
 10
0.0
 20
0.0
 30
0.0
  0
TEXT
  5
125C
  8
SCHRIFT-025
 62
     7
 10
363.67616723540368
 20
-30.474833768622918
 30
0.0
 40
2.5
  1
(Oberfläche)
 41
0.9
  0
TEXT
  5
125D
  8
SCHRIFT-025
 62
     7
 10
367.61225751836992
 20
-46.89758242937441
 30
0.0
 40
2.5
  1
Name
  0
INSERT
  5
125E
  8
5
  6
CONTINUOUS
  2
*U35
 10
0.0
 20
0.0
 30
0.0
  0
TEXT
  5
125F
  8
SCHRIFT-025
 62
     7
 10
350.69267044475032
 20
-46.89338267734351
 30
0.0
 40
2.5
  1
Datum
  0
TEXT
  5
1260
  8
SCHRIFT-025
 62
     7
 10
425.47033039913549
 20
-80.823587161318585
 30
0.0
 40
2.5
  1
(Ers.d.:)
 41
0.9
  0
LINE
  5
1261
  8
XKANTEN-025
 62
     7
 10
423.83742208974769
 20
-81.664833768622913
 30
0.0
 11
423.83742208974769
 21
-77.434833768622923
 31
0.0
  0
LINE
  5
1262
  8
XKANTEN-025
 62
     7
 10
437.56242208974771
 20
-26.6748337686229
 30
0.0
 11
437.56242208974771
 21
-33.011150094276992
 31
0.0
  0
LINE
  5
1263
  8
XKANTEN-025
 62
     7
 10
454.31742208974771
 20
-73.204833768622905
 30
0.0
 11
467.01742208974781
 21
-73.204833768622905
 31
0.0
  0
LINE
  5
1264
  8
XKANTEN-07
 62
     7
 10
454.31742208974771
 20
-77.434833768622923
 30
0.0
 11
454.31742208974771
 21
-64.744833768622897
 31
0.0
  0
TEXT
  5
1265
  8
SCHRIFT-025
 62
     7
 10
455.26742208974781
 20
-68.255397925974563
 30
0.0
 40
2.5
  1
Blatt
  0
TEXT
  5
1266
  8
SCHRIFT-025
 62
     7
 10
463.09097253986778
 20
-76.666386401289202
 30
0.0
 40
2.5
  1
Bl.
  0
TEXT
  5
1267
  8
SCHRIFT-025
 62
     7
 10
439.46242208974769
 20
-30.976371546548648
 30
0.0
 40
2.5
  1
(Gewicht)
  0
LINE
  5
1268
  8
XKANTEN-07
 62
     7
 10
467.01742208974781
 20
-81.664833768622913
 30
0.0
 11
467.01742208974781
 21
118.3351662313771
 31
0.0
  0
LINE
  5
1269
  8
XKANTEN-07
 62
     7
 10
467.01742208974781
 20
118.3351662313771
 30
0.0
 11
180.01742208974781
 21
118.3351662313771
 31
0.0
  0
LINE
  5
126A
  8
XKANTEN-07
 62
     7
 10
180.01742208974781
 20
118.3351662313771
 30
0.0
 11
180.01742208974781
 21
-81.664833768622898
 31
0.0
  0
LINE
  5
126B
  8
XKANTEN-07
 62
     7
 10
180.01742208974781
 20
-81.664833768622898
 30
0.0
 11
467.01742208974781
 21
-81.664833768622913
 31
0.0
  0
LINE
  5
126C
  8
XAUßEN-025
 62
     7
 10
472.01742208974781
 20
-86.664833768622913
 30
0.0
 11
472.01742208974781
 21
123.3351662313771
 31
0.0
  0
LINE
  5
126D
  8
XAUßEN-025
 62
     7
 10
472.01742208974781
 20
123.3351662313771
 30
0.0
 11
175.0174220897477
 21
123.3351662313771
 31
0.0
  0
LINE
  5
126E
  8
XAUßEN-025
 62
     7
 10
175.0174220897477
 20
123.3351662313771
 30
0.0
 11
175.0174220897477
 21
-86.664833768622927
 31
0.0
  0
LINE
  5
126F
  8
XAUßEN-025
 62
     7
 10
175.0174220897477
 20
-86.664833768622927
 30
0.0
 11
472.01742208974781
 21
-86.664833768622913
 31
0.0
  0
VIEWPORT
  5
4F9
 67
     1
  8
0
  6
CONTINUOUS
 10
5.6937504565621921
 20
3.968749891115924
 30
0.0
 40
12.745889085096019
 41
8.7461330960491512
 68
     1
 69
     1
1001
ACAD
1000
MVIEW
1002
{
1070
    16
1010
0.0
1020
0.0
1030
0.0
1010
0.0
1020
0.0
1030
1.0
1040
0.0
1040
8.7461330960491512
1040
5.6937504565621921
1040
3.968749891115924
1040
50.0
1040
0.0
1040
0.0
1070
     0
1070
   100
1070
     1
1070
     1
1070
     0
1070
     0
1070
     0
1070
     0
1040
0.0
1040
0.0
1040
0.0
1040
10.0
1040
10.0
1040
10.0
1040
10.0
1070
     0
1002
{
1002
}
1002
}
1001
GENIUS_GENODEF_13
1002
{
1000
HIER
1070
     0
1002
}
1002
{
1000
MANEDIT
1070
     0
1002
}
1002
{
1000
NOSEL
1070
     0
1002
}
1002
{
1000
BEHIND
1070
     0
1002
}
1002
{
1000
OTHER
1070
     0
1002
}
1002
{
1000
REACTOR
1002
}
1001
GENIUS_GENOBJ-N-SDF_13
1002
{
1000
OWNER
1000
GEN
1002
}
1001
GENIUS_GENSCREG_15
1000
PF
1040
1.0
1000
DF
1040
1.0
1000
MIN
1011
-0.6791940859858184
1021
0.0
1031
0.0
1021
-0.4043166569086516
1031
0.0
1000
MAX
1011
12.066694999110201
1021
0.0
1031
0.0
1021
8.3418164391404996
1031
0.0
1000
FLAGS
1070
     2
  0
VIEWPORT
  5
4FB
 67
     1
  8
1
  6
CONTINUOUS
 10
5.5220833538085454
 20
3.9687501257798798
 30
0.0
 40
8.8353333660936713
 41
6.3500002012478083
 68
     2
 69
     2
1001
ACAD
1000
MVIEW
1002
{
1070
    16
1010
0.0
1020
0.0
1030
0.0
1010
0.0
1020
0.0
1030
1.0
1040
0.0
1040
150.7291237738599
1040
52.75717410347211
1040
-22.074998999999991
1040
50.0
1040
0.0
1040
0.0
1070
     0
1070
   100
1070
     1
1070
     1
1070
     0
1070
     0
1070
     0
1070
     0
1040
0.0
1040
0.0
1040
0.0
1040
1.0
1040
1.0
1040
0.0
1040
0.0
1070
     0
1002
{
1002
}
1002
}
1001
GENIUS_GENOBJ-N-SDF_13
1002
{
1000
OWNER
1000
GEN
1002
}
1001
GENIUS_GENODEF_13
1002
{
1000
HIER
1070
     0
1002
}
1002
{
1000
MANEDIT
1070
     0
1002
}
1002
{
1000
NOSEL
1070
     0
1002
}
1002
{
1000
BEHIND
1070
     0
1002
}
1002
{
1000
OTHER
1070
     0
1002
}
1002
{
1000
REACTOR
1002
}
1001
GENIUS_GENSCREG_15
1000
PF
1040
0.0
1000
DF
1040
0.0
1000
MIN
1011
1.1044166707617089
1021
0.0
1031
0.0
1021
0.7937500251559762
1031
0.0
1000
MAX
1011
9.9397500368553811
1021
0.0
1031
0.0
1021
7.1437502264037844
1031
0.0
1000
FLAGS
1070
     2
  0
ENDSEC
  0
EOF
